10 CC Ten Out Of 10 1981

Download Now

http://i65.fastpic.ru/big/2014/0913/d5/d559749a0a60955050c38180e8db6ed5.jpg

10 CC - Ten Out Of 10 (1981)
EAC Rip | FLAC Image + Cue + Log - 245 MB | MP3 CBR @320 kbps - 106 MB | Full scans - 101 MB
Label: Mercury / Phonogram Ltd. | Catalog.#: 800 039-2 | Genre: Pop Rock, Art Rock

"After the success of Bloody Tourists, and the artsy excess of Look Hear?, Eric Stewart and Graham Gouldman gave the rest of the band their walking papers, and recorded this album as a duo. Sounding fresh and energized, this was by far 10cc's best album since 1977's Deceptive Bends. Maintaining a mild case of the quirkiness of old, Stewart and Gouldman embrace some of their finest melodies on this release, allowing the songs to speak for themselves. "Don't Ask" is one of those great little pop songs that you think you've heard somewhere before..."


Track Listing:

01. Don't Ask - 4:04
02. Overdraft In Overdrive - 3:26
03. Don't Turn Me Away - 5:03
04. Memories - 4:30
05. Notell Hotel - 4:59
06. Les Nouveaux Riches - 5:12
07. Action Man In A Motown Suit - 4:48
08. Listen With Your Eyes - 3:14
09. Lying Here With You - 3:23
10. Survivor - 5:50.05]

Exact Audio Copy V1.0 beta 3 from 29. August 2011

EAC extraction logfile from 5. September 2014, 15:25

10cc / Ten Out Of Ten

Used drive : PLEXTOR DVDR PX-L890SA Adapter: 1 ID: 0

Read mode : Secure
Utilize accurate stream : Yes
Defeat audio cache : Yes
Make use of C2 pointers : No

Read offset correction : 6
Overread into Lead-In and Lead-Out : No
Fill up missing offset samples with silence : Yes
Delete leading and trailing silent blocks : No
Null samples used in CRC calculations : Yes
Used interface : Native Win32 interface for Win NT & 2000

Used output format : User Defined Encoder
Selected bitrate : 768 kBit/s
Quality : High
Add ID3 tag : No
Command line compressor : G:Program FilesExact Audio CopyFLACFLAC.EXE
Additional command line options : -V -8 -T "Date=%year%" -T "Genre=%genre%" %source%

TOC of the extracted CD Track | Start | Length | Start sector | End sector
---
1 | 0:00.32 | 4:04.50 | 32 | 18381
2 | 4:05.07 | 3:26.08 | 18382 | 33839
3 | 7:31.15 | 5:03.17 | 33840 | 56581
4 | 12:34.32 | 4:30.30 | 56582 | 76861
5 | 17:04.62 | 4:59.05 | 76862 | 99291
6 | 22:03.67 | 5:12.50 | 99292 | 122741
7 | 27:16.42 | 4:48.65 | 122742 | 144406
8 | 32:05.32 | 3:14.40 | 144407 | 158996
9 | 35:19.72 | 3:23.40 | 158997 | 174261
10 | 38:43.37 | 5:50.05 | 174262 | 200516

Range status and errors

Selected range Filename H:MUSIC1981. 10CC - Ten Out of 10 (Mercury 800 039-2, Germany)10cc - Ten Out Of Ten.wav Peak level 100.0 %
Extraction speed 5.4 X
Range quality 100.0 %
Test CRC 3FDAEE94
Copy CRC 3FDAEE94
Copy OK

No errors occurred

AccurateRip summary

Track 1 accurately ripped (confidence 10) [1B4B36B8] (AR v2)
Track 2 accurately ripped (confidence 10) [3D08CBE3] (AR v2)
Track 3 accurately ripped (confidence 10) [2EBB5C0D] (AR v2)
Track 4 accurately ripped (confidence 10) [6B1C8F7E] (AR v2)
Track 5 accurately ripped (confidence 10) [3F543034] (AR v2)
Track 6 accurately ripped (confidence 10) [DAAF9DD2] (AR v2)
Track 7 accurately ripped (confidence 10) [020D48A5] (AR v2)
Track 8 accurately ripped (confidence 10) [C5F8D5AC] (AR v2)
Track 9 accurately ripped (confidence 10) 498C35C (AR v2)
Track 10 accurately ripped (confidence 10) [14A4C3A8] (AR v2)

All tracks accurately ripped

End of status report

==== Log checksum 95FB27783ED26BD753563BD6AB2D1AF85D37DC4C1986F77095A91A262EE85864 ====

[CUETools log; Date: 11.09.2014 6:47:28; Version: 2.1.2a]
Pregap length 00:00:32.
[CTDB TOCID: aCKBRrXa9QTPxTmB45zdH8zH6sU-] disk not present in database.
[AccurateRip ID: 001091db-00855684-780a710a] found.
Track [ CRC ] Status
01 [8791d035] (08/18) Accurately ripped
02 [17a55dad] (08/18) Accurately ripped
03 [f7c4f7eb] (07/17) Accurately ripped
04 [23bcbd65] (07/17) Accurately ripped
05 [0aee895f] (08/18) Accurately ripped
06 [3ef3388b] (07/17) Accurately ripped
07 969c675 (08/18) Accurately ripped
08 [a3418511] (08/18) Accurately ripped
09 [3afd5a39] (07/17) Accurately ripped
10 [8509ebae] (09/19) Accurately ripped
AccurateRip v2:
01 [1b4b36b8] (10/18) Accurately ripped
02 [3d08cbe3] (10/18) Accurately ripped
03 [2ebb5c0d] (10/17) Accurately ripped
04 [6b1c8f7e] (10/17) Accurately ripped
05 [3f543034] (10/18) Accurately ripped
06 [daaf9dd2] (10/17) Accurately ripped
07 [020d48a5] (10/18) Accurately ripped
08 [c5f8d5ac] (10/18) Accurately ripped
09 498c35c (10/17) Accurately ripped
10 [14a4c3a8] (10/19) Accurately ripped

Track Peak [ CRC32 ] [W/O NULL] [ LOG ]
-- 100,0 [3FDAEE94] [43E4BFEC] CRC32
01 100,0 [FCD5CCAC] [89DE4F7E]
02 91,1 [D2591AFF] A5773F6
03 86,3 [C9ED1179] [C417281F]
04 91,8 [8DE8404E] [65737802]
05 79,8 [262029AA] [230EE4E5]
06 88,2 [3365F7DD] [13DA110D]
07 100,0 [1DBCAAEE] [80F6BF59]
08 95,2 [4060F386] [DB5A5BDD]
09 63,4 [A41EA0BC] [AA0B3BA2]
10 98,3 6883095 [7ACDA714]

foobar2000 1.2.8 / Dynamic Range Meter 1.1.1
log date: 2014-09-11 18:54:08

--
Analyzed: 10cc / Ten Out Of Ten
--

DR Peak RMS Duration Track
--
DR15 0.00 dB -16.84 dB 4:05 01-Don't Ask
DR14 -0.81 dB -17.98 dB 3:26 02-Overdraft In Overdrive
DR14 -1.28 dB -18.48 dB 5:03 03-Don't Turn Me Away
DR15 -0.73 dB -19.63 dB 4:30 04-Memories
DR14 -1.96 dB -18.44 dB 4:59 05-Notell Hotel
DR14 -1.08 dB -17.68 dB 5:13 06-Les Nouveaux Riches
DR16 0.00 dB -18.92 dB 4:49 07-Action Man In A Motown Suit
DR14 -0.43 dB -17.89 dB 3:15 08-Listen With Your Eyes
DR14 -3.95 dB -23.53 dB 3:24 09-Lying Here With You
DR14 -0.15 dB -17.96 dB 5:50 10-Survivor
--

Number of tracks: 10
Official DR value: DR14

Samplerate: 44100 Hz
Channels: 2
Bits per sample: 16
Bitrate: 746 kbps
Codec: FLAC
=

Personnel

* Eric Stewart - lead vocals, synthesiser, guitars, bass, slide guitar, pianos, percussion, synthesiser strings, rock snare
* Graham Gouldman - lead vocals, bass, guitars, percussion, double bass, sitar
* Rick Fenn - guitars, fretless bass, backing vocals ("Don't Ask", "Action Man in Motown Suit")
* Vic Emerson - synclavier, string synthesiser, piano, electric piano, bass
* Paul Burgess - drums, percussion

with

* Marc Jordan - organ, piano, backing vocals, electric piano
* Lenni Crookes - sax on "Don't Turn Me Away"
* Simon Phillips - drums on "Survivor" and "Tomorrow's World Today"
* Keith Bessey - maracas on "Survivor"
* Andrew Gold - vocals, bass, guitar, piano, electric piano, synthesiser, vocoder, percussion

Released Date: November 27, 1981
Format: CD, Album
Length: 44:33
Producer: Eric Stewart, Graham Gouldman

http://i65.fastpic.ru/big/2014/0913/5c/b9a2066b5f62fe8f00d63308e9ffc85c.jpg

http://i67.fastpic.ru/big/2014/0913/b1/685a1ba2f17cec12fb3dc70b4cb933b1.jpg


DOWNLOAD
(Premium Recommended)


All above links are interchangable. No password
Direct Download

10 CC Ten Out Of 10 1981 Download via Hotfile Rapidshare Fileserve Megaupload & FileSonic, 10 CC Ten Out Of 10 1981 free torrent downloads included crack, serial, keygen.


Add comments

Your Name:
Your E-Mail:

Security Code:
Include security image CAPCHA.
update code
Insert Code: