Donizetti Caterina Cornaro Carlo Felice Cillario Montserrat Caballe Jose Carreras

Download Now

http://i66.fastpic.ru/big/2014/0924/48/894c25188038d065a13fd28bbe84ed48.jpg

Legendary Performances of Carreras: Donizetti - Caterina Cornaro (Carlo Felice Cillario, Montserrat Caballé, José Carreras) [2007/1972]
EAC Rip | FLAC, IMG+CUE, LOG | Covers | 2cd, 450 MB
Classical | Bravissimo | BRV 9909 | CD1:62'55; CD2:56'24

" All of these are live recordings so the sound is quite variable. The standard square box contains separate soft plastic sleeves in which the cds are inserted. The advantage is that the cds are well protected (minor risk for scrapes compared to cardboard), but there is no information printed on the sleeve since it is made of plastic. There is some basic information printed on each cd (name, composer, cd #, the act/s and the date of the recording). There is also a small 24pg booklet that introduces the box including some photos as well as content description for each disc (opera, singers, time and location as well as a list of the separate tracks). I have been collecting these boxes for a while and always find it worthwhile as there are gems nicely interspersed in these collections. By Moonfish"


Performed:
Caterina Cornaro - Montserrat Caballé
Matilde - Anne Edwards
Gerardo - José Carreras
Lusignano - Lorenzo Saccomani
Mocenigo - Maurizio Mazzieri
Andrea Cornaro - Enrique Serra
Strozzi - Neville Williams
Un cavaliere del re - Neville Williams
Orchestra & Chorus of Covent Garden
Conductor - Carlo Felice Cillario

Tracklist:
CD1
01. Introduzione. Salve o beati, al giubilo
02. Tu l'amor mio
03. Or che l'astro in mar...Torna all'ospite tetto
04. Vieni, o tu che ognora Io chiamo
05. Ah! vieni t'affretta
06. Spera in me
07. Atto I. Sei bella, o Cipro!
08. Da che sposa Caterina
09. Core e pugnale
10. Vedi: io piango

CD2
01. Gemmata il serto... Non turbarti a questi accenti
02. Io non vengo a suscitare
03. Indietro! Io, vil carnefice!
04. Atto II. Misera Patria!
05. Io trar non voglio
06. Oh ciel! Che tumulto!
07. Pietà, o Signor
08. Orsù della Vittoria... Non più affanni

Exact Audio Copy V1.0 beta 3 from 29. August 2011

EAC extraction logfile from 19. September 2014, 14:36

Carlo Felice Cillario, Montserrat Caballé, José Carreras / Donizetti - Caterina Cornaro CD1

Used drive : PIONEER DVD-RW DVR-218L Adapter: 0 ID: 0

Read mode : Secure
Utilize accurate stream : Yes
Defeat audio cache : Yes
Make use of C2 pointers : No

Read offset correction : 6
Overread into Lead-In and Lead-Out : No
Fill up missing offset samples with silence : Yes
Delete leading and trailing silent blocks : No
Null samples used in CRC calculations : Yes
Used interface : Native Win32 interface for Win NT & 2000

Used output format : User Defined Encoder
Selected bitrate : 128 kBit/s
Quality : High
Add ID3 tag : No
Command line compressor : C:Program Files (x86)Exact Audio CopyFlacflac.exe
Additional command line options : -V -8 -T "Date=%year%" -T "Genre=%genre%" %source%

TOC of the extracted CD Track | Start | Length | Start sector | End sector
---
1 | 0:00.00 | 3:15.00 | 0 | 14624
2 | 3:15.00 | 10:48.23 | 14625 | 63247
3 | 14:03.23 | 4:08.25 | 63248 | 81872
4 | 18:11.48 | 3:23.58 | 81873 | 97155
5 | 21:35.31 | 7:21.03 | 97156 | 130233
6 | 28:56.34 | 6:47.27 | 130234 | 160785
7 | 35:43.61 | 5:31.13 | 160786 | 185623
8 | 41:14.74 | 4:10.60 | 185624 | 204433
9 | 45:25.59 | 6:48.52 | 204434 | 235085
10 | 52:14.36 | 6:51.64 | 235086 | 265974

Range status and errors

Selected range Filename C:Program Files (x86)Exact Audio CopyFlacDonizetti - Caterina Cornaro CD1.wav Peak level 96.6 %
Extraction speed 1.9 X
Range quality 100.0 %
Test CRC 495B87F2
Copy CRC 495B87F2
Copy OK

No errors occurred

AccurateRip summary

Track 1 accurately ripped (confidence 5) [05982CD4] (AR v1)
Track 2 accurately ripped (confidence 5) [07AE24AD] (AR v1)
Track 3 accurately ripped (confidence 5) [E94EB6C6] (AR v1)
Track 4 accurately ripped (confidence 5) [5915B114] (AR v1)
Track 5 accurately ripped (confidence 5) [927E7342] (AR v1)
Track 6 accurately ripped (confidence 5) [995EC7A7] (AR v1)
Track 7 accurately ripped (confidence 5) 4D7F7D6 (AR v1)
Track 8 accurately ripped (confidence 5) [F031C3E0] (AR v1)
Track 9 accurately ripped (confidence 5) [963A3527] (AR v1)
Track 10 accurately ripped (confidence 5) [716F5130] (AR v1)

All tracks accurately ripped

End of status report

---- CUETools DB Plugin V2.1.3

[CTDB TOCID: k4zQJtaAznrTzhb0WZE0Xbgzg6c-] found, Submit result: k4zQJtaAznrTzhb0WZE0Xbgzg6c- has been confirmed
[3c77532a] (1/1) Accurately ripped

==== Log checksum 5D3EFF46A6C3C409AF7C7CD53DE7CEED513A553CADF79D38A9730FEF4514E5DE ====

Exact Audio Copy V1.0 beta 3 from 29. August 2011

EAC extraction logfile from 19. September 2014, 15:33

Carlo Felice Cillario, Montserrat Caballé, José Carreras / Donizetti - Caterina Cornaro CD2

Used drive : PIONEER DVD-RW DVR-218L Adapter: 0 ID: 0

Read mode : Secure
Utilize accurate stream : Yes
Defeat audio cache : Yes
Make use of C2 pointers : No

Read offset correction : 6
Overread into Lead-In and Lead-Out : No
Fill up missing offset samples with silence : Yes
Delete leading and trailing silent blocks : No
Null samples used in CRC calculations : Yes
Used interface : Native Win32 interface for Win NT & 2000

Used output format : User Defined Encoder
Selected bitrate : 128 kBit/s
Quality : High
Add ID3 tag : No
Command line compressor : C:Program Files (x86)Exact Audio CopyFlacflac.exe
Additional command line options : -V -8 -T "Date=%year%" -T "Genre=%genre%" %source%

TOC of the extracted CD Track | Start | Length | Start sector | End sector
---
1 | 0:00.00 | 9:32.36 | 0 | 42935
2 | 9:32.36 | 9:34.31 | 42936 | 86016
3 | 19:06.67 | 5:45.52 | 86017 | 111943
4 | 24:52.44 | 1:43.23 | 111944 | 119691
5 | 26:35.67 | 4:06.67 | 119692 | 138208
6 | 30:42.59 | 3:03.62 | 138209 | 151995
7 | 33:46.46 | 5:19.45 | 151996 | 175965
8 | 39:06.16 | 6:17.31 | 175966 | 204271

Range status and errors

Selected range Filename C:Program Files (x86)Exact Audio CopyFlacDonizetti - Caterina Cornaro CD2.wav Peak level 96.5 %
Extraction speed 1.8 X
Range quality 100.0 %
Test CRC ABD3C0DE
Copy CRC ABD3C0DE
Copy OK

No errors occurred

AccurateRip summary

Track 1 accurately ripped (confidence 4) [CBAC2B88] (AR v1)
Track 2 accurately ripped (confidence 4) [A76C90DE] (AR v1)
Track 3 accurately ripped (confidence 4) [08D9DEC0] (AR v1)
Track 4 accurately ripped (confidence 4) [FC5186B5] (AR v1)
Track 5 accurately ripped (confidence 4) [5F7DDF23] (AR v1)
Track 6 accurately ripped (confidence 4) [5D607AFC] (AR v1)
Track 7 accurately ripped (confidence 4) [02EDD033] (AR v1)
Track 8 accurately ripped (confidence 4) [794E76C6] (AR v1)

All tracks accurately ripped

End of status report

---- CUETools DB Plugin V2.1.3

[CTDB TOCID: lNCtKB.ds5WhrxHsxZ8KSrpYARY-] found, Submit result: lNCtKB.ds5WhrxHsxZ8KSrpYARY- has been confirmed
[d5c40cb3] (1/1) Accurately ripped

==== Log checksum CEE27B6B810DA8C5EA71384A84D44E150574B78D8D1DD6367DC3F61263BA9672 ====
DOWNLOAD
(Premium Recommended)


All above links are interchangable. No password
Direct Download

Tags: Montserrat, Caballe, Carreras, Cillario, Felice
Build Public Notes Normal Version Login Lion Rsadazi | Mac Os X Mountain Lion Portable Genius Epub Rapidgator | Pro Motion Menu Kit | Imgchili Small Candydoll Tv | Neoza Tv Zoo Porho | Igo Primo Lang Slovak Zip Download | Homiladorlar Sex Videosi | Datahostfile Beats | Zoe Tribe Sex Video | Laser A Student Book Para Imprimir | Katya Oil Sexibl | Forbidden Loli Sex Video | Where Can I Find Michelle Romanis Video Shoot | Girls From Vanderpump Rules Nudes Photo | Hustler Tv Online Usa | Vanderpump Rules Nudity Uncensored | Core Activition Dll | Bare Maidens Free Photo Galleries | Serial Axmag Portable

Donizetti Caterina Cornaro Carlo Felice Cillario Montserrat Caballe Jose Carreras Download via Hotfile Rapidshare Fileserve Megaupload & FileSonic, Donizetti Caterina Cornaro Carlo Felice Cillario Montserrat Caballe Jose Carreras free torrent downloads included crack, serial, keygen.


Add comments

Your Name:
Your E-Mail:

Security Code:
Include security image CAPCHA.
update code
Insert Code: