Myroslav Skoryk Violin and Piano Music Soroka Greene

Download Now

http://i66.fastpic.ru/big/2014/0924/3f/16cc0bb5015b339b347bfab1f989673f.jpg

Myroslav Skoryk - Violin and Piano Music (Soroka, Greene)
Classical | EAC: FLAC+Cue+Log | 1 Cd, Covers + Booklet | 365 Mb
Label:Toccata - Date:2012

"The leading Ukrainian composer of today, Myroslav Skoryk (born in Lwów, now Lviv, in 1938) grew up in Siberia, where his family was deported after the Second World War, and he began to write music under the tutelage of other political prisoners there. He later studied with Kabalevsky in Moscow before settling back in his native city, where he soon became an important teacher and is now a major figure in Ukrainian cultural life. His music is direct and forthright, with echoes of Prokofiev: there are passages of driving energy and power and a keen sense of drama - and Skoryk, too, is not afraid of writing a glorious tune when he wants to."


Tracks:

01. Melody from the High Pass [0:03:38.38]
02. Violin Sonata No. 1 - I. Andante - Allegro molto - Andante - Largo e grave [0:07:19.20]
03. II. Largo [0:03:26.61]
04. III. Allegro molto [0:06:42.30]
05. Hutsuls'ky tryptykh (Hutsul Triptych) (version for violin and piano) - I. Allegretto [0:05:29.08]
06. II. Dance [0:03:50.34]
07. Caprice [0:04:40.45]
08. Carpathian Rhapsody [0:05:41.11]
09. Poem [0:05:50.40]
10. Violin Sonata No. 2 - I. The Word: Moderato con moto [0:05:04.52]
11. II. Aria: Andante con moto [0:05:55.74]
12. III. Burlesque: Vivo [0:03:49.24]
13. Stone Ruler: Spanish Dance (version for violin and piano) [0:04:11.30]

Exact Audio Copy V1.0 beta 3 from 29. August 2011

EAC extraction logfile from 28. August 2014, 0:31

Myroslav Skoryk / Violin and Piano Music (Soroka, Greene)

Used drive : TSSTcorpCDDVDW SH-S223C Adapter: 2 ID: 1

Read mode : Secure
Utilize accurate stream : Yes
Defeat audio cache : Yes
Make use of C2 pointers : No

Read offset correction : 697
Overread into Lead-In and Lead-Out : No
Fill up missing offset samples with silence : Yes
Delete leading and trailing silent blocks : No
Null samples used in CRC calculations : Yes
Used interface : Native Win32 interface for Win NT & 2000

Used output format : User Defined Encoder
Selected bitrate : 1024 kBit/s
Quality : High
Add ID3 tag : No
Command line compressor : C:Program Files (x86)Exact Audio CopyFLACFLAC.EXE
Additional command line options : -V -0 -T "COMMENT=Ripped by Tapaz9" -T "artist=%artist%" -T "title=%title%" -T "album=%albumtitle%" -T "date=%year%" -T "tracknumber=%tracknr%" -T "genre=%genre%" %source%

TOC of the extracted CD Track | Start | Length | Start sector | End sector
---
1 | 0:00.00 | 3:38.38 | 0 | 16387
2 | 3:38.38 | 7:19.20 | 16388 | 49332
3 | 10:57.58 | 3:26.61 | 49333 | 64843
4 | 14:24.44 | 6:42.30 | 64844 | 95023
5 | 21:06.74 | 5:29.08 | 95024 | 119706
6 | 26:36.07 | 3:50.34 | 119707 | 136990
7 | 30:26.41 | 4:40.45 | 136991 | 158035
8 | 35:07.11 | 5:41.11 | 158036 | 183621
9 | 40:48.22 | 5:50.40 | 183622 | 209911
10 | 46:38.62 | 5:04.52 | 209912 | 232763
11 | 51:43.39 | 5:55.74 | 232764 | 259462
12 | 57:39.38 | 3:49.24 | 259463 | 276661
13 | 61:28.62 | 4:11.30 | 276662 | 295516

Range status and errors

Selected range Filename F:MusiqueSkoryk, MyroslavKoryk_ViolinAndPianoMusicMyroslav Skoryk - Violin and Piano Music (Soroka, Greene).wav Peak level 88.0 %
Extraction speed 15.6 X
Range quality 100.0 %
Copy CRC B67FAFEE
Copy OK

No errors occurred

End of status report

==== Log checksum F495C136D6039A237E12070D39FB090664FB0A81B500778711B4C19191115468 ====
DOWNLOAD
(Premium Recommended)

Uploadable.ch:
i1aoz.Myroslav.Skoryk..Violin.and.Piano.Music.Soroka.Greene.part1.rar
i1aoz.Myroslav.Skoryk..Violin.and.Piano.Music.Soroka.Greene.part2.rar
i1aoz.Myroslav.Skoryk..Violin.and.Piano.Music.Soroka.Greene.part3.rar
i1aoz.Myroslav.Skoryk..Violin.and.Piano.Music.Soroka.Greene.part4.rar

Uploaded.net:
i1aoz.Myroslav.Skoryk..Violin.and.Piano.Music.Soroka.Greene.part1.rar
i1aoz.Myroslav.Skoryk..Violin.and.Piano.Music.Soroka.Greene.part2.rar
i1aoz.Myroslav.Skoryk..Violin.and.Piano.Music.Soroka.Greene.part3.rar
i1aoz.Myroslav.Skoryk..Violin.and.Piano.Music.Soroka.Greene.part4.rar

Rapidgator.net:
i1aoz.Myroslav.Skoryk..Violin.and.Piano.Music.Soroka.Greene.part1.rar.html
i1aoz.Myroslav.Skoryk..Violin.and.Piano.Music.Soroka.Greene.part2.rar.html
i1aoz.Myroslav.Skoryk..Violin.and.Piano.Music.Soroka.Greene.part3.rar.html
i1aoz.Myroslav.Skoryk..Violin.and.Piano.Music.Soroka.Greene.part4.rar.html

OBoom.com:
i1aoz.Myroslav.Skoryk..Violin.and.Piano.Music.Soroka.Greene.part1.rar
i1aoz.Myroslav.Skoryk..Violin.and.Piano.Music.Soroka.Greene.part2.rar
i1aoz.Myroslav.Skoryk..Violin.and.Piano.Music.Soroka.Greene.part3.rar
i1aoz.Myroslav.Skoryk..Violin.and.Piano.Music.Soroka.Greene.part4.rar

UpDown.bz:
i1aoz.Myroslav.Skoryk..Violin.and.Piano.Music.Soroka.Greene.part1.rar
i1aoz.Myroslav.Skoryk..Violin.and.Piano.Music.Soroka.Greene.part2.rar
i1aoz.Myroslav.Skoryk..Violin.and.Piano.Music.Soroka.Greene.part3.rar
i1aoz.Myroslav.Skoryk..Violin.and.Piano.Music.Soroka.Greene.part4.rar

All above links are interchangable. No password
Direct Download

Tags: Soroka, Greene, Skoryk, Violin, Myroslav
Solo Crack Tecdoc | Enter Password For The Encrypted File Fifa Pobierz | Federal Taxation Chapter Partnerships Flow Through Entities | Vaudix Plugin Free Download For Windows | Utorrent Yeh Jawani Hai Deewani | Xnxx Unblock Bypass In Pakistan Online Video | Windows Enterprise Product Key Rodoved Magazine Facts Issue | Dle Image Begin I Fastpic Ru Big f | Bioshock Intimate Elizabeths | School Boy And Girl Cartoon | Windows Enterprise Activator | Julia Mexzoo Zoofilia | Reality Cp Video Torrent | Google Video Downloader Sex Videos | Crack Economics For Today th Edition | Freaky Alarm Ipa Cracked | Cse Nd W Manual | Eset Smart Security Keys | Cleveland Jr And Cecilia | Launching An Online Business With Lewis Howes

Myroslav Skoryk Violin and Piano Music Soroka Greene Download via Hotfile Rapidshare Fileserve Megaupload & FileSonic, Myroslav Skoryk Violin and Piano Music Soroka Greene free torrent downloads included crack, serial, keygen.


Add comments

Your Name:
Your E-Mail:

Security Code:
Include security image CAPCHA.
update code
Insert Code: