Rick Astley Together Forever The Best Of Rick Astley 2007 2CD

Download Now

http://i64.fastpic.ru/big/2014/1025/66/fbd9836ec8b30cff7642feadcf4d3466.jpg

Rick Astley - Together Forever: The Best Of Rick Astley (2007) 2CD
EAC | FLAC | Tracks (Cue&Log) ~ 965 Mb (incl 5%) | Mp3 (CBR320) ~ 366 Mb (incl 5%) | Scans included
Genre: Adult Contemporary Pop, Dance-Pop, Blue-Eyed Soul | Label: Music Club Deluxe | # MCDLX041 | Time: 02:28:08

"Wielding a rich, deep voice, Rick Astley became an overnight sensation in the late '80s with his well-crafted dance-pop. Astley was discovered by producer Pete Waterman in 1985, when the Merseyside native was singing in the English soul band FBI. After that, Waterman's production team -- Stock, Aitken & Waterman -- took Astley under their wing, writing and producing such impeccably crafted pop singles as "Never Gonna Give You Up" and "Together Forever"."


Tracklist:

CD1:

01. Never Gonna Give You Up (03:35)
02. Whenever You Need Someone (03:55)
03. When I Fall In Love (03:04)
04. Together Forever (03:27)
05. It Would Take A Strong Strong Man (03:42)
06. The Love Has Gone (04:20)
07. Dont't Say Goodbye (04:10)
08. Slipping Away (03:54)
09. You Move Me (03:44)
10. No More Looking For Love (03:15)
11. She Wants To Dance With Me (03:17)
12. Take Me To Your Heart (03:31)
13. Hold Me In Your Arms (04:33)
14. Giving Up On Love (04:05)
15. Ain't Too Proud To Be (04:19)
16. Till Then (Time Stands Still) (03:18)
17. Dial My Number (04:10)
18. I'll Never Let You Down (03:59)

CD2:

01. Cry For Help (04:51)
02. Move Right Out (03:53)
03. Never Knew Love (03:08)
04. I Don't Want To Be Your Lover (03:59)
05. In The Name Of Love (04:26)
06. Be With You (04:10)
07. Really Got A Problem (04:17)
08. Is This Really Love (03:29)
09. This Must Be Heaven (04:43)
10. The Bottom Line (05:17)
11. Wonderful You (05:11)
12. Behind The Smile (04:36)
13. The Ones You Love (04:37)
14. Hopelessly (03:35)
15. Waiting For The Bells To Ring (04:52)
16. A Dream For Us (06:07)
17. Body And Soul (04:09)
18. When You Love Someone (04:14)


Exact Audio Copy V1.0 beta 3 from 29. August 2011

EAC extraction logfile from 16. October 2014, 18:39

Rick Astley / Together Forever (The Best Of) CD01

Used drive : HL-DT-STDVDRAM GSA-T50L Adapter: 1 ID: 0

Read mode : Secure
Utilize accurate stream : Yes
Defeat audio cache : No
Make use of C2 pointers : No

Read offset correction : 667
Overread into Lead-In and Lead-Out : No
Fill up missing offset samples with silence : Yes
Delete leading and trailing silent blocks : No
Null samples used in CRC calculations : Yes
Used interface : Native Win32 interface for Win NT & 2000
Gap handling : Appended to previous track

Used output format : User Defined Encoder
Selected bitrate : 1024 kBit/s
Quality : High
Add ID3 tag : No
Command line compressor : C:Program FilesExact Audio CopyFlacflac.exe
Additional command line options : -8 -V -T "ARTIST=%artist%" -T "TITLE=%title%" -T "ALBUM=%albumtitle%" -T "DATE=%year%" -T "TRACKNUMBER=%tracknr%" -T "GENRE=%genre%" -T "PERFORMER=%albuminterpret%" -T "COMPOSER=%composer%" %haslyrics%--tag-from-file=LYRICS="%lyricsfile%"%haslyrics% -T "ALBUMARTIST=%albumartist%" -T "DISCNUMBER=%cdnumber%" -T "TOTALDISCS=%totalcds%" -T "TOTALTRACKS=%numtracks%" -T "COMMENT=%comment%" %source% -o %dest%

TOC of the extracted CD Track | Start | Length | Start sector | End sector
---
1 | 0:00.00 | 3:35.37 | 0 | 16161
2 | 3:35.37 | 3:55.46 | 16162 | 33832
3 | 7:31.08 | 3:04.37 | 33833 | 47669
4 | 10:35.45 | 3:27.03 | 47670 | 63197
5 | 14:02.48 | 3:42.07 | 63198 | 79854
6 | 17:44.55 | 4:20.45 | 79855 | 99399
7 | 22:05.25 | 4:10.26 | 99400 | 118175
8 | 26:15.51 | 3:54.26 | 118176 | 135751
9 | 30:10.02 | 3:44.16 | 135752 | 152567
10 | 33:54.18 | 3:15.31 | 152568 | 167223
11 | 37:09.49 | 3:17.28 | 167224 | 182026
12 | 40:27.02 | 3:31.13 | 182027 | 197864
13 | 43:58.15 | 4:33.44 | 197865 | 218383
14 | 48:31.59 | 4:05.16 | 218384 | 236774
15 | 52:37.00 | 4:19.46 | 236775 | 256245
16 | 56:56.46 | 3:18.62 | 256246 | 271157
17 | 60:15.33 | 4:10.54 | 271158 | 289961
18 | 64:26.12 | 3:59.15 | 289962 | 307901

Track 1 Filename C:FLAC1 Never Gonna Give You Up.wav Pre-gap length 0:00:02.00 Peak level 83.4 %
Extraction speed 4.3 X
Track quality 100.0 %
Test CRC 80577DB7
Copy CRC 80577DB7
Accurately ripped (confidence 3) [384DF5C6] (AR v1)
Copy OK

Track 2 Filename C:FLAC2 Whenever You Need Someone.wav Pre-gap length 0:00:01.68 Peak level 89.1 %
Extraction speed 4.6 X
Track quality 100.0 %
Test CRC 3D329F28
Copy CRC 3D329F28
Accurately ripped (confidence 3) [5830D879] (AR v1)
Copy OK

Track 3 Filename C:FLAC3 When I Fall In Love.wav Pre-gap length 0:00:01.68 Peak level 65.1 %
Extraction speed 5.0 X
Track quality 100.0 %
Test CRC 328FE440
Copy CRC 328FE440
Accurately ripped (confidence 3) [294E49D2] (AR v1)
Copy OK

Track 4 Filename C:FLAC4 Together Forever.wav Pre-gap length 0:00:01.68 Peak level 99.4 %
Extraction speed 5.3 X
Track quality 100.0 %
Test CRC C8762BD4
Copy CRC C8762BD4
Accurately ripped (confidence 3) [28752DD6] (AR v1)
Copy OK

Track 5 Filename C:FLAC5 It Would Take A Strong Strong Man.wav Pre-gap length 0:00:01.68 Peak level 90.2 %
Extraction speed 5.6 X
Track quality 99.9 %
Test CRC DA9ABDF1
Copy CRC DA9ABDF1
Accurately ripped (confidence 3) [DB13067D] (AR v1)
Copy OK

Track 6 Filename C:FLAC6 The Love Has Gone.wav Pre-gap length 0:00:01.68 Peak level 88.9 %
Extraction speed 5.9 X
Track quality 99.9 %
Test CRC BDFCC27F
Copy CRC BDFCC27F
Accurately ripped (confidence 3) [777410AB] (AR v1)
Copy OK

Track 7 Filename C:FLAC7 Dont't Say Goodbye.wav Pre-gap length 0:00:01.68 Peak level 89.2 %
Extraction speed 6.3 X
Track quality 99.9 %
Test CRC 1AD1E26B
Copy CRC 1AD1E26B
Accurately ripped (confidence 3) 1B0A257 (AR v1)
Copy OK

Track 8 Filename C:FLAC8 Slipping Away.wav Pre-gap length 0:00:01.68 Peak level 86.7 %
Extraction speed 6.6 X
Track quality 99.9 %
Test CRC 095D4DE0
Copy CRC 095D4DE0
Accurately ripped (confidence 3) [88E45F7E] (AR v1)
Copy OK

Track 9 Filename C:FLAC9 You Move Me.wav Pre-gap length 0:00:01.68 Peak level 80.4 %
Extraction speed 6.7 X
Track quality 100.0 %
Test CRC 5362BFE6
Copy CRC 5362BFE6
Accurately ripped (confidence 3) [EDBC5DCB] (AR v1)
Copy OK

Track 10 Filename C:FLAC10 No More Looking For Love.wav Pre-gap length 0:00:01.66 Peak level 78.1 %
Extraction speed 7.0 X
Track quality 100.0 %
Test CRC 5F8AE494
Copy CRC 5F8AE494
Accurately ripped (confidence 3) [71CAF1AC] (AR v1)
Copy OK

Track 11 Filename C:FLAC11 She Wants To Dance With Me.wav Pre-gap length 0:00:01.68 Peak level 83.6 %
Extraction speed 7.3 X
Track quality 100.0 %
Test CRC F1FE4174
Copy CRC F1FE4174
Accurately ripped (confidence 3) [00891510] (AR v1)
Copy OK

Track 12 Filename C:FLAC12 Take Me To Your Heart.wav Pre-gap length 0:00:01.68 Peak level 71.2 %
Extraction speed 7.5 X
Track quality 99.9 %
Test CRC 8F730E7A
Copy CRC 8F730E7A
Accurately ripped (confidence 3) [965CAAA0] (AR v1)
Copy OK

Track 13 Filename C:FLAC13 Hold Me In Your Arms.wav Pre-gap length 0:00:01.68 Peak level 76.0 %
Extraction speed 8.0 X
Track quality 100.0 %
Test CRC F7E10713
Copy CRC F7E10713
Accurately ripped (confidence 3) [8253D639] (AR v1)
Copy OK

Track 14 Filename C:FLAC14 Giving Up On Love.wav Pre-gap length 0:00:01.68 Peak level 75.8 %
Extraction speed 8.1 X
Track quality 100.0 %
Test CRC E098A998
Copy CRC E098A998
Accurately ripped (confidence 3) [CCBF2BD2] (AR v1)
Copy OK

Track 15 Filename C:FLAC15 Ain't Too Proud To Be.wav Pre-gap length 0:00:01.68 Peak level 70.6 %
Extraction speed 8.1 X
Track quality 99.9 %
Test CRC F2C933B4
Copy CRC F2C933B4
Accurately ripped (confidence 3) [39B7511B] (AR v1)
Copy OK

Track 16 Filename C:FLAC16 Till Then (Time Stands Still).wav Pre-gap length 0:00:01.68 Peak level 76.6 %
Extraction speed 8.5 X
Track quality 100.0 %
Test CRC 858C66B8
Copy CRC 858C66B8
Accurately ripped (confidence 3) [A5AC03A9] (AR v1)
Copy OK

Track 17 Filename C:FLAC17 Dial My Number.wav Pre-gap length 0:00:01.68 Peak level 70.0 %
Extraction speed 8.8 X
Track quality 100.0 %
Test CRC 95B6B0E7
Copy CRC 95B6B0E7
Accurately ripped (confidence 3) [972D63FE] (AR v1)
Copy OK

Track 18 Filename C:FLAC18 I'll Never Let You Down.wav Pre-gap length 0:00:01.68 Peak level 74.6 %
Extraction speed 9.3 X
Track quality 100.0 %
Test CRC F50C99A8
Copy CRC F50C99A8
Accurately ripped (confidence 3) [753A26B3] (AR v1)
Copy OK

All tracks accurately ripped

No errors occurred

End of status report

---- CUETools DB Plugin V2.1.3

[CTDB TOCID: 7sYzCfkhjVOBE0xARSR3OqPoZhc-] found, Submit result: 7sYzCfkhjVOBE0xARSR3OqPoZhc- has been confirmed
[2f34ae38] (2/3) Accurately ripped
[37970598] (1/3) Differs in 2639 samples @56:27:54-56:27:55,56:29:31-56:29:32,56:29:49-56:29:50,56:29:67,56:30:28-56:30:29,56:30:46-56:30:47,56:31:44,56:32:23-56:32:24,56:32:41-56:32:42,56:33:02,56:33:20-56:33:21,56:33:38,56:33:57,56:34:00,56:34:54-56:34:55,56:34:72-56:34:73,56:35:15-56:35:16,56:35:33-56:35:34,56:35:51-56:35:52,56:35:70,56:36:12-56:36:13,56:36:49,56:37:10,56:37:28-56:37:29,56:37:46-56:37:47,56:37:64-56:37:65,56:38:07-56:38:08,56:38:25-56:38:26,56:38:44,56:39:05-56:39:06,56:39:23-56:39:24,56:39:41,56:39:59,56:40:02-56:40:03,56:40:20-56:40:21,56:40:38,56:40:56-56:40:57,56:41:00,56:41:18-56:41:19,56:41:36,56:41:54-56:41:55,56:41:72-56:41:73,56:42:15,56:42:33-56:42:34,56:42:51-56:42:52,56:42:69-56:42:70,56:43:13,56:43:31,56:43:49-56:43:50,56:43:67-56:43:68,56:44:10-56:44:11,56:44:28-56:44:29,56:44:46-56:44:47,56:44:64-56:44:65,56:45:07-56:45:08,56:45:26-56:45:27,56:45:44-56:45:45,56:45:62,56:46:05-56:46:06,56:46:23-56:46:24,56:46:41-56:46:42,56:46:59-56:46:60,56:47:02-56:47:03,56:47:20-56:47:21,56:47:39,56:47:57-56:47:58,56:48:00-56:48:01,56:48:18-56:48:19,56:48:36-56:48:37,56:48:55,56:48:72-56:48:73,56:49:16,56:49:34,56:49:52,56:49:70-56:49:71,56:50:13,56:50:31-56:50:32,56:50:49-56:50:50,56:50:67-56:50:68,56:51:10-56:51:11,56:51:29,56:51:47,56:51:65,56:52:08-56:52:09,56:52:26-56:52:27,56:52:45,56:52:62-56:52:63,56:53:06,56:53:24,56:53:42,56:53:60,56:54:03-56:54:04,56:54:21-56:54:22,56:54:40,56:54:58,56:56:71,56:57:14,56:57:32-56:57:33,56:57:50-56:57:51,56:57:68-56:57:69,56:58:30,56:58:48,56:59:09,56:59:63-56:59:64,57:00:07,57:07:63
You can use CUETools to repair this rip.

==== Log checksum 7E80830A3CB7D70F706882E8664259CEEA9343EFECF26168AB56C3B7E2492D1F ====

------

Exact Audio Copy V1.0 beta 3 from 29. August 2011

EAC extraction logfile from 16. October 2014, 18:39

Rick Astley / Together Forever (The Best Of) CD01

Used drive : HL-DT-STDVDRAM GSA-T50L Adapter: 1 ID: 0

Read mode : Secure
Utilize accurate stream : Yes
Defeat audio cache : No
Make use of C2 pointers : No

Read offset correction : 667
Overread into Lead-In and Lead-Out : No
Fill up missing offset samples with silence : Yes
Delete leading and trailing silent blocks : No
Null samples used in CRC calculations : Yes
Used interface : Native Win32 interface for Win NT & 2000
Gap handling : Appended to previous track

Used output format : User Defined Encoder
Selected bitrate : 1024 kBit/s
Quality : High
Add ID3 tag : No
Command line compressor : C:Program FilesExact Audio CopyFlacflac.exe
Additional command line options : -8 -V -T "ARTIST=%artist%" -T "TITLE=%title%" -T "ALBUM=%albumtitle%" -T "DATE=%year%" -T "TRACKNUMBER=%tracknr%" -T "GENRE=%genre%" -T "PERFORMER=%albuminterpret%" -T "COMPOSER=%composer%" %haslyrics%--tag-from-file=LYRICS="%lyricsfile%"%haslyrics% -T "ALBUMARTIST=%albumartist%" -T "DISCNUMBER=%cdnumber%" -T "TOTALDISCS=%totalcds%" -T "TOTALTRACKS=%numtracks%" -T "COMMENT=%comment%" %source% -o %dest%

TOC of the extracted CD Track | Start | Length | Start sector | End sector
---
1 | 0:00.00 | 3:35.37 | 0 | 16161
2 | 3:35.37 | 3:55.46 | 16162 | 33832
3 | 7:31.08 | 3:04.37 | 33833 | 47669
4 | 10:35.45 | 3:27.03 | 47670 | 63197
5 | 14:02.48 | 3:42.07 | 63198 | 79854
6 | 17:44.55 | 4:20.45 | 79855 | 99399
7 | 22:05.25 | 4:10.26 | 99400 | 118175
8 | 26:15.51 | 3:54.26 | 118176 | 135751
9 | 30:10.02 | 3:44.16 | 135752 | 152567
10 | 33:54.18 | 3:15.31 | 152568 | 167223
11 | 37:09.49 | 3:17.28 | 167224 | 182026
12 | 40:27.02 | 3:31.13 | 182027 | 197864
13 | 43:58.15 | 4:33.44 | 197865 | 218383
14 | 48:31.59 | 4:05.16 | 218384 | 236774
15 | 52:37.00 | 4:19.46 | 236775 | 256245
16 | 56:56.46 | 3:18.62 | 256246 | 271157
17 | 60:15.33 | 4:10.54 | 271158 | 289961
18 | 64:26.12 | 3:59.15 | 289962 | 307901

Track 1 Filename C:FLAC1 Never Gonna Give You Up.wav Pre-gap length 0:00:02.00 Peak level 83.4 %
Extraction speed 4.3 X
Track quality 100.0 %
Test CRC 80577DB7
Copy CRC 80577DB7
Accurately ripped (confidence 3) [384DF5C6] (AR v1)
Copy OK

Track 2 Filename C:FLAC2 Whenever You Need Someone.wav Pre-gap length 0:00:01.68 Peak level 89.1 %
Extraction speed 4.6 X
Track quality 100.0 %
Test CRC 3D329F28
Copy CRC 3D329F28
Accurately ripped (confidence 3) [5830D879] (AR v1)
Copy OK

Track 3 Filename C:FLAC3 When I Fall In Love.wav Pre-gap length 0:00:01.68 Peak level 65.1 %
Extraction speed 5.0 X
Track quality 100.0 %
Test CRC 328FE440
Copy CRC 328FE440
Accurately ripped (confidence 3) [294E49D2] (AR v1)
Copy OK

Track 4 Filename C:FLAC4 Together Forever.wav Pre-gap length 0:00:01.68 Peak level 99.4 %
Extraction speed 5.3 X
Track quality 100.0 %
Test CRC C8762BD4
Copy CRC C8762BD4
Accurately ripped (confidence 3) [28752DD6] (AR v1)
Copy OK

Track 5 Filename C:FLAC5 It Would Take A Strong Strong Man.wav Pre-gap length 0:00:01.68 Peak level 90.2 %
Extraction speed 5.6 X
Track quality 99.9 %
Test CRC DA9ABDF1
Copy CRC DA9ABDF1
Accurately ripped (confidence 3) [DB13067D] (AR v1)
Copy OK

Track 6 Filename C:FLAC6 The Love Has Gone.wav Pre-gap length 0:00:01.68 Peak level 88.9 %
Extraction speed 5.9 X
Track quality 99.9 %
Test CRC BDFCC27F
Copy CRC BDFCC27F
Accurately ripped (confidence 3) [777410AB] (AR v1)
Copy OK

Track 7 Filename C:FLAC7 Dont't Say Goodbye.wav Pre-gap length 0:00:01.68 Peak level 89.2 %
Extraction speed 6.3 X
Track quality 99.9 %
Test CRC 1AD1E26B
Copy CRC 1AD1E26B
Accurately ripped (confidence 3) 1B0A257 (AR v1)
Copy OK

Track 8 Filename C:FLAC8 Slipping Away.wav Pre-gap length 0:00:01.68 Peak level 86.7 %
Extraction speed 6.6 X
Track quality 99.9 %
Test CRC 095D4DE0
Copy CRC 095D4DE0
Accurately ripped (confidence 3) [88E45F7E] (AR v1)
Copy OK

Track 9 Filename C:FLAC9 You Move Me.wav Pre-gap length 0:00:01.68 Peak level 80.4 %
Extraction speed 6.7 X
Track quality 100.0 %
Test CRC 5362BFE6
Copy CRC 5362BFE6
Accurately ripped (confidence 3) [EDBC5DCB] (AR v1)
Copy OK

Track 10 Filename C:FLAC10 No More Looking For Love.wav Pre-gap length 0:00:01.66 Peak level 78.1 %
Extraction speed 7.0 X
Track quality 100.0 %
Test CRC 5F8AE494
Copy CRC 5F8AE494
Accurately ripped (confidence 3) [71CAF1AC] (AR v1)
Copy OK

Track 11 Filename C:FLAC11 She Wants To Dance With Me.wav Pre-gap length 0:00:01.68 Peak level 83.6 %
Extraction speed 7.3 X
Track quality 100.0 %
Test CRC F1FE4174
Copy CRC F1FE4174
Accurately ripped (confidence 3) [00891510] (AR v1)
Copy OK

Track 12 Filename C:FLAC12 Take Me To Your Heart.wav Pre-gap length 0:00:01.68 Peak level 71.2 %
Extraction speed 7.5 X
Track quality 99.9 %
Test CRC 8F730E7A
Copy CRC 8F730E7A
Accurately ripped (confidence 3) [965CAAA0] (AR v1)
Copy OK

Track 13 Filename C:FLAC13 Hold Me In Your Arms.wav Pre-gap length 0:00:01.68 Peak level 76.0 %
Extraction speed 8.0 X
Track quality 100.0 %
Test CRC F7E10713
Copy CRC F7E10713
Accurately ripped (confidence 3) [8253D639] (AR v1)
Copy OK

Track 14 Filename C:FLAC14 Giving Up On Love.wav Pre-gap length 0:00:01.68 Peak level 75.8 %
Extraction speed 8.1 X
Track quality 100.0 %
Test CRC E098A998
Copy CRC E098A998
Accurately ripped (confidence 3) [CCBF2BD2] (AR v1)
Copy OK

Track 15 Filename C:FLAC15 Ain't Too Proud To Be.wav Pre-gap length 0:00:01.68 Peak level 70.6 %
Extraction speed 8.1 X
Track quality 99.9 %
Test CRC F2C933B4
Copy CRC F2C933B4
Accurately ripped (confidence 3) [39B7511B] (AR v1)
Copy OK

Track 16 Filename C:FLAC16 Till Then (Time Stands Still).wav Pre-gap length 0:00:01.68 Peak level 76.6 %
Extraction speed 8.5 X
Track quality 100.0 %
Test CRC 858C66B8
Copy CRC 858C66B8
Accurately ripped (confidence 3) [A5AC03A9] (AR v1)
Copy OK

Track 17 Filename C:FLAC17 Dial My Number.wav Pre-gap length 0:00:01.68 Peak level 70.0 %
Extraction speed 8.8 X
Track quality 100.0 %
Test CRC 95B6B0E7
Copy CRC 95B6B0E7
Accurately ripped (confidence 3) [972D63FE] (AR v1)
Copy OK

Track 18 Filename C:FLAC18 I'll Never Let You Down.wav Pre-gap length 0:00:01.68 Peak level 74.6 %
Extraction speed 9.3 X
Track quality 100.0 %
Test CRC F50C99A8
Copy CRC F50C99A8
Accurately ripped (confidence 3) [753A26B3] (AR v1)
Copy OK

All tracks accurately ripped

No errors occurred

End of status report

---- CUETools DB Plugin V2.1.3

[CTDB TOCID: 7sYzCfkhjVOBE0xARSR3OqPoZhc-] found, Submit result: 7sYzCfkhjVOBE0xARSR3OqPoZhc- has been confirmed
[2f34ae38] (2/3) Accurately ripped
[37970598] (1/3) Differs in 2639 samples @56:27:54-56:27:55,56:29:31-56:29:32,56:29:49-56:29:50,56:29:67,56:30:28-56:30:29,56:30:46-56:30:47,56:31:44,56:32:23-56:32:24,56:32:41-56:32:42,56:33:02,56:33:20-56:33:21,56:33:38,56:33:57,56:34:00,56:34:54-56:34:55,56:34:72-56:34:73,56:35:15-56:35:16,56:35:33-56:35:34,56:35:51-56:35:52,56:35:70,56:36:12-56:36:13,56:36:49,56:37:10,56:37:28-56:37:29,56:37:46-56:37:47,56:37:64-56:37:65,56:38:07-56:38:08,56:38:25-56:38:26,56:38:44,56:39:05-56:39:06,56:39:23-56:39:24,56:39:41,56:39:59,56:40:02-56:40:03,56:40:20-56:40:21,56:40:38,56:40:56-56:40:57,56:41:00,56:41:18-56:41:19,56:41:36,56:41:54-56:41:55,56:41:72-56:41:73,56:42:15,56:42:33-56:42:34,56:42:51-56:42:52,56:42:69-56:42:70,56:43:13,56:43:31,56:43:49-56:43:50,56:43:67-56:43:68,56:44:10-56:44:11,56:44:28-56:44:29,56:44:46-56:44:47,56:44:64-56:44:65,56:45:07-56:45:08,56:45:26-56:45:27,56:45:44-56:45:45,56:45:62,56:46:05-56:46:06,56:46:23-56:46:24,56:46:41-56:46:42,56:46:59-56:46:60,56:47:02-56:47:03,56:47:20-56:47:21,56:47:39,56:47:57-56:47:58,56:48:00-56:48:01,56:48:18-56:48:19,56:48:36-56:48:37,56:48:55,56:48:72-56:48:73,56:49:16,56:49:34,56:49:52,56:49:70-56:49:71,56:50:13,56:50:31-56:50:32,56:50:49-56:50:50,56:50:67-56:50:68,56:51:10-56:51:11,56:51:29,56:51:47,56:51:65,56:52:08-56:52:09,56:52:26-56:52:27,56:52:45,56:52:62-56:52:63,56:53:06,56:53:24,56:53:42,56:53:60,56:54:03-56:54:04,56:54:21-56:54:22,56:54:40,56:54:58,56:56:71,56:57:14,56:57:32-56:57:33,56:57:50-56:57:51,56:57:68-56:57:69,56:58:30,56:58:48,56:59:09,56:59:63-56:59:64,57:00:07,57:07:63
You can use CUETools to repair this rip.

==== Log checksum 7E80830A3CB7D70F706882E8664259CEEA9343EFECF26168AB56C3B7E2492D1F ====

foobar2000 1.2 / Dynamic Range Meter 1.1.1
log date: 2014-10-22 16:57:18

--
Analyzed: Rick Astley / Together Forever (The Best Of) CD01
--

DR Peak RMS Duration Track
--
DR13 -1.57 dB -16.61 dB 3:35 01-Never Gonna Give You Up
DR14 -0.99 dB -17.47 dB 3:56 02-Whenever You Need Someone
DR13 -3.72 dB -20.43 dB 3:04 03-When I Fall In Love
DR14 -0.05 dB -16.58 dB 3:27 04-Together Forever
DR15 -0.89 dB -17.66 dB 3:42 05-It Would Take A Strong Strong Man
DR14 -1.01 dB -17.20 dB 4:21 06-The Love Has Gone
DR14 -0.98 dB -16.87 dB 4:10 07-Dont't Say Goodbye
DR14 -1.24 dB -17.53 dB 3:54 08-Slipping Away
DR14 -1.89 dB -17.79 dB 3:44 09-You Move Me
DR14 -2.14 dB -18.40 dB 3:15 10-No More Looking For Love
DR15 -1.55 dB -18.21 dB 3:17 11-She Wants To Dance With Me
DR14 -2.94 dB -18.29 dB 3:31 12-Take Me To Your Heart
DR13 -2.37 dB -18.50 dB 4:34 13-Hold Me In Your Arms
DR13 -2.40 dB -18.15 dB 4:05 14-Giving Up On Love
DR13 -3.02 dB -18.44 dB 4:20 15-Ain't Too Proud To Be
DR13 -2.31 dB -17.67 dB 3:19 16-Till Then (Time Stands Still)
DR13 -3.09 dB -18.86 dB 4:11 17-Dial My Number
DR14 -2.54 dB -18.46 dB 3:59 18-I'll Never Let You Down
--

Number of tracks: 18
Official DR value: DR14

Samplerate: 44100 Hz
Channels: 2
Bits per sample: 16
Bitrate: 857 kbps
Codec: FLAC
=

Exact Audio Copy V1.0 beta 3 from 29. August 2011

EAC extraction logfile from 16. October 2014, 19:52

Rick Astley / Together Forever (The Best Of) CD02

Used drive : HL-DT-STDVDRAM GSA-T50L Adapter: 1 ID: 0

Read mode : Secure
Utilize accurate stream : Yes
Defeat audio cache : No
Make use of C2 pointers : No

Read offset correction : 667
Overread into Lead-In and Lead-Out : No
Fill up missing offset samples with silence : Yes
Delete leading and trailing silent blocks : No
Null samples used in CRC calculations : Yes
Used interface : Native Win32 interface for Win NT & 2000
Gap handling : Appended to previous track

Used output format : User Defined Encoder
Selected bitrate : 1024 kBit/s
Quality : High
Add ID3 tag : No
Command line compressor : C:Program FilesExact Audio CopyFlacflac.exe
Additional command line options : -8 -V -T "ARTIST=%artist%" -T "TITLE=%title%" -T "ALBUM=%albumtitle%" -T "DATE=%year%" -T "TRACKNUMBER=%tracknr%" -T "GENRE=%genre%" -T "PERFORMER=%albuminterpret%" -T "COMPOSER=%composer%" %haslyrics%--tag-from-file=LYRICS="%lyricsfile%"%haslyrics% -T "ALBUMARTIST=%albumartist%" -T "DISCNUMBER=%cdnumber%" -T "TOTALDISCS=%totalcds%" -T "TOTALTRACKS=%numtracks%" -T "COMMENT=%comment%" %source% -o %dest%

TOC of the extracted CD Track | Start | Length | Start sector | End sector
---
1 | 0:00.00 | 4:51.20 | 0 | 21844
2 | 4:51.20 | 3:53.24 | 21845 | 39343
3 | 8:44.44 | 3:08.59 | 39344 | 53502
4 | 11:53.28 | 3:59.57 | 53503 | 71484
5 | 15:53.10 | 4:26.64 | 71485 | 91498
6 | 20:19.74 | 4:10.56 | 91499 | 110304
7 | 24:30.55 | 4:17.05 | 110305 | 129584
8 | 28:47.60 | 3:29.20 | 129585 | 145279
9 | 32:17.05 | 4:43.45 | 145280 | 166549
10 | 37:00.50 | 5:17.36 | 166550 | 190360
11 | 42:18.11 | 5:11.45 | 190361 | 213730
12 | 47:29.56 | 4:36.15 | 213731 | 234445
13 | 52:05.71 | 4:37.74 | 234446 | 255294
14 | 56:43.70 | 3:35.45 | 255295 | 271464
15 | 60:19.40 | 4:52.08 | 271465 | 293372
16 | 65:11.48 | 6:07.42 | 293373 | 320939
17 | 71:19.15 | 4:09.74 | 320940 | 339688
18 | 75:29.14 | 4:14.00 | 339689 | 358738

Track 1 Filename C:FLAC1 Cry For Help.wav Pre-gap length 0:00:02.00 Peak level 68.4 %
Extraction speed 4.4 X
Track quality 100.0 %
Test CRC 04DA3EFD
Copy CRC 04DA3EFD
Accurately ripped (confidence 4) [690D327F] (AR v1)
Copy OK

Track 2 Filename C:FLAC2 Move Right Out.wav Pre-gap length 0:00:00.40 Peak level 89.3 %
Extraction speed 4.6 X
Track quality 100.0 %
Test CRC 018C9305
Copy CRC 018C9305
Accurately ripped (confidence 4) [6A9C5AFD] (AR v1)
Copy OK

Track 3 Filename C:FLAC3 Never Knew Love.wav Pre-gap length 0:00:00.44 Peak level 79.7 %
Extraction speed 5.0 X
Track quality 100.0 %
Test CRC E3EE8EA8
Copy CRC E3EE8EA8
Accurately ripped (confidence 4) [1B13E419] (AR v1)
Copy OK

Track 4 Filename C:FLAC4 I Don't Want To Be Your Lover.wav Pre-gap length 0:00:00.32 Peak level 79.4 %
Extraction speed 5.5 X
Track quality 100.0 %
Test CRC 77281AF3
Copy CRC 77281AF3
Accurately ripped (confidence 4) [A099873E] (AR v1)
Copy OK

Track 5 Filename C:FLAC5 In The Name Of Love.wav Pre-gap length 0:00:00.28 Peak level 71.4 %
Extraction speed 5.6 X
Track quality 100.0 %
Test CRC 10D96606
Copy CRC 10D96606
Accurately ripped (confidence 4) [1C173A5F] (AR v1)
Copy OK

Track 6 Filename C:FLAC6 Be With You.wav Pre-gap length 0:00:00.37 Peak level 83.4 %
Extraction speed 6.1 X
Track quality 100.0 %
Test CRC F68153A8
Copy CRC F68153A8
Accurately ripped (confidence 4) [E4EC7AB3] (AR v1)
Copy OK

Track 7 Filename C:FLAC7 Really Got A Problem.wav Pre-gap length 0:00:00.34 Peak level 100.0 %
Extraction speed 6.4 X
Track quality 100.0 %
Test CRC 6A42126B
Copy CRC 6A42126B
Accurately ripped (confidence 4) [66915D07] (AR v1)
Copy OK

Track 8 Filename C:FLAC8 Is This Really Love.wav Pre-gap length 0:00:00.28 Peak level 100.0 %
Extraction speed 6.4 X
Track quality 100.0 %
Test CRC 1AA5A218
Copy CRC 1AA5A218
Accurately ripped (confidence 4) [D36F0CDB] (AR v1)
Copy OK

Track 9 Filename C:FLAC9 This Must Be Heaven.wav Pre-gap length 0:00:00.21 Peak level 100.0 %
Extraction speed 6.9 X
Track quality 100.0 %
Test CRC CE7A07CB
Copy CRC CE7A07CB
Accurately ripped (confidence 4) [37F35C37] (AR v1)
Copy OK

Track 10 Filename C:FLAC10 The Bottom Line.wav Pre-gap length 0:00:00.41 Peak level 76.8 %
Extraction speed 7.3 X
Track quality 100.0 %
Test CRC 05EC638F
Copy CRC 05EC638F
Accurately ripped (confidence 4) [C255E5B7] (AR v1)
Copy OK

Track 11 Filename C:FLAC11 Wonderful You.wav Pre-gap length 0:00:00.40 Peak level 81.4 %
Extraction speed 7.3 X
Track quality 100.0 %
Test CRC D15AE87F
Copy CRC D15AE87F
Accurately ripped (confidence 4) [D0A8E5EB] (AR v1)
Copy OK

Track 12 Filename C:FLAC12 Behind The Smile.wav Pre-gap length 0:00:00.38 Peak level 60.6 %
Extraction speed 7.0 X
Track quality 99.9 %
Test CRC 2ED15FB9
Copy CRC 2ED15FB9
Accurately ripped (confidence 4) [190B1B87] (AR v1)
Copy OK

Track 13 Filename C:FLAC13 The Ones You Love.wav Pre-gap length 0:00:00.53 Peak level 77.6 %
Extraction speed 7.8 X
Track quality 100.0 %
Test CRC 3233E83F
Copy CRC 3233E83F
Accurately ripped (confidence 4) [49AB752A] (AR v1)
Copy OK

Track 14 Filename C:FLAC14 Hopelessly.wav Pre-gap length 0:00:00.54 Peak level 75.9 %
Extraction speed 6.7 X
Track quality 100.0 %
Test CRC DC81E5E1
Copy CRC DC81E5E1
Accurately ripped (confidence 4) [76F15F7D] (AR v1)
Copy OK

Track 15 Filename C:FLAC15 Waiting For The Bells To Ring.wav Pre-gap length 0:00:00.37 Peak level 77.6 %
Extraction speed 8.2 X
Track quality 100.0 %
Test CRC A833CB26
Copy CRC A833CB26
Accurately ripped (confidence 4) [F19CB486] (AR v1)
Copy OK

Track 16 Filename C:FLAC16 A Dream For Us.wav Pre-gap length 0:00:00.53 Peak level 78.8 %
Extraction speed 8.9 X
Track quality 100.0 %
Test CRC E83A44D2
Copy CRC E83A44D2
Accurately ripped (confidence 4) [1608E612] (AR v1)
Copy OK

Track 17 Filename C:FLAC17 Body And Soul.wav Pre-gap length 0:00:00.44 Peak level 87.0 %
Extraction speed 8.7 X
Track quality 99.9 %
Test CRC 8AB7E9CD
Copy CRC 8AB7E9CD
Accurately ripped (confidence 4) [8750FC76] (AR v1)
Copy OK

Track 18 Filename C:FLAC18 When You Love Someone.wav Pre-gap length 0:00:00.36 Peak level 77.6 %
Extraction speed 9.0 X
Track quality 99.9 %
Test CRC 2D102A9F
Copy CRC 2D102A9F
Accurately ripped (confidence 4) [796E9D35] (AR v1)
Copy OK

All tracks accurately ripped

No errors occurred

End of status report

---- CUETools DB Plugin V2.1.3

[CTDB TOCID: aSC7yN.nzP27ibPejdi4HnmJ6M8-] found, Submit result: aSC7yN.nzP27ibPejdi4HnmJ6M8- has been confirmed
[a42bd030] (3/3) Accurately ripped

==== Log checksum 166C11F05409703C02D28D4E3CD6DCFAAF4CFDC56727BDCE28D1E7B3D74E728C ====

------

Exact Audio Copy V1.0 beta 3 from 29. August 2011

EAC extraction logfile from 16. October 2014, 19:52

Rick Astley / Together Forever (The Best Of) CD02

Used drive : HL-DT-STDVDRAM GSA-T50L Adapter: 1 ID: 0

Read mode : Secure
Utilize accurate stream : Yes
Defeat audio cache : No
Make use of C2 pointers : No

Read offset correction : 667
Overread into Lead-In and Lead-Out : No
Fill up missing offset samples with silence : Yes
Delete leading and trailing silent blocks : No
Null samples used in CRC calculations : Yes
Used interface : Native Win32 interface for Win NT & 2000
Gap handling : Appended to previous track

Used output format : User Defined Encoder
Selected bitrate : 1024 kBit/s
Quality : High
Add ID3 tag : No
Command line compressor : C:Program FilesExact Audio CopyFlacflac.exe
Additional command line options : -8 -V -T "ARTIST=%artist%" -T "TITLE=%title%" -T "ALBUM=%albumtitle%" -T "DATE=%year%" -T "TRACKNUMBER=%tracknr%" -T "GENRE=%genre%" -T "PERFORMER=%albuminterpret%" -T "COMPOSER=%composer%" %haslyrics%--tag-from-file=LYRICS="%lyricsfile%"%haslyrics% -T "ALBUMARTIST=%albumartist%" -T "DISCNUMBER=%cdnumber%" -T "TOTALDISCS=%totalcds%" -T "TOTALTRACKS=%numtracks%" -T "COMMENT=%comment%" %source% -o %dest%

TOC of the extracted CD Track | Start | Length | Start sector | End sector
---
1 | 0:00.00 | 4:51.20 | 0 | 21844
2 | 4:51.20 | 3:53.24 | 21845 | 39343
3 | 8:44.44 | 3:08.59 | 39344 | 53502
4 | 11:53.28 | 3:59.57 | 53503 | 71484
5 | 15:53.10 | 4:26.64 | 71485 | 91498
6 | 20:19.74 | 4:10.56 | 91499 | 110304
7 | 24:30.55 | 4:17.05 | 110305 | 129584
8 | 28:47.60 | 3:29.20 | 129585 | 145279
9 | 32:17.05 | 4:43.45 | 145280 | 166549
10 | 37:00.50 | 5:17.36 | 166550 | 190360
11 | 42:18.11 | 5:11.45 | 190361 | 213730
12 | 47:29.56 | 4:36.15 | 213731 | 234445
13 | 52:05.71 | 4:37.74 | 234446 | 255294
14 | 56:43.70 | 3:35.45 | 255295 | 271464
15 | 60:19.40 | 4:52.08 | 271465 | 293372
16 | 65:11.48 | 6:07.42 | 293373 | 320939
17 | 71:19.15 | 4:09.74 | 320940 | 339688
18 | 75:29.14 | 4:14.00 | 339689 | 358738

Track 1 Filename C:FLAC1 Cry For Help.wav Pre-gap length 0:00:02.00 Peak level 68.4 %
Extraction speed 4.4 X
Track quality 100.0 %
Test CRC 04DA3EFD
Copy CRC 04DA3EFD
Accurately ripped (confidence 4) [690D327F] (AR v1)
Copy OK

Track 2 Filename C:FLAC2 Move Right Out.wav Pre-gap length 0:00:00.40 Peak level 89.3 %
Extraction speed 4.6 X
Track quality 100.0 %
Test CRC 018C9305
Copy CRC 018C9305
Accurately ripped (confidence 4) [6A9C5AFD] (AR v1)
Copy OK

Track 3 Filename C:FLAC3 Never Knew Love.wav Pre-gap length 0:00:00.44 Peak level 79.7 %
Extraction speed 5.0 X
Track quality 100.0 %
Test CRC E3EE8EA8
Copy CRC E3EE8EA8
Accurately ripped (confidence 4) [1B13E419] (AR v1)
Copy OK

Track 4 Filename C:FLAC4 I Don't Want To Be Your Lover.wav Pre-gap length 0:00:00.32 Peak level 79.4 %
Extraction speed 5.5 X
Track quality 100.0 %
Test CRC 77281AF3
Copy CRC 77281AF3
Accurately ripped (confidence 4) [A099873E] (AR v1)
Copy OK

Track 5 Filename C:FLAC5 In The Name Of Love.wav Pre-gap length 0:00:00.28 Peak level 71.4 %
Extraction speed 5.6 X
Track quality 100.0 %
Test CRC 10D96606
Copy CRC 10D96606
Accurately ripped (confidence 4) [1C173A5F] (AR v1)
Copy OK

Track 6 Filename C:FLAC6 Be With You.wav Pre-gap length 0:00:00.37 Peak level 83.4 %
Extraction speed 6.1 X
Track quality 100.0 %
Test CRC F68153A8
Copy CRC F68153A8
Accurately ripped (confidence 4) [E4EC7AB3] (AR v1)
Copy OK

Track 7 Filename C:FLAC7 Really Got A Problem.wav Pre-gap length 0:00:00.34 Peak level 100.0 %
Extraction speed 6.4 X
Track quality 100.0 %
Test CRC 6A42126B
Copy CRC 6A42126B
Accurately ripped (confidence 4) [66915D07] (AR v1)
Copy OK

Track 8 Filename C:FLAC8 Is This Really Love.wav Pre-gap length 0:00:00.28 Peak level 100.0 %
Extraction speed 6.4 X
Track quality 100.0 %
Test CRC 1AA5A218
Copy CRC 1AA5A218
Accurately ripped (confidence 4) [D36F0CDB] (AR v1)
Copy OK

Track 9 Filename C:FLAC9 This Must Be Heaven.wav Pre-gap length 0:00:00.21 Peak level 100.0 %
Extraction speed 6.9 X
Track quality 100.0 %
Test CRC CE7A07CB
Copy CRC CE7A07CB
Accurately ripped (confidence 4) [37F35C37] (AR v1)
Copy OK

Track 10 Filename C:FLAC10 The Bottom Line.wav Pre-gap length 0:00:00.41 Peak level 76.8 %
Extraction speed 7.3 X
Track quality 100.0 %
Test CRC 05EC638F
Copy CRC 05EC638F
Accurately ripped (confidence 4) [C255E5B7] (AR v1)
Copy OK

Track 11 Filename C:FLAC11 Wonderful You.wav Pre-gap length 0:00:00.40 Peak level 81.4 %
Extraction speed 7.3 X
Track quality 100.0 %
Test CRC D15AE87F
Copy CRC D15AE87F
Accurately ripped (confidence 4) [D0A8E5EB] (AR v1)
Copy OK

Track 12 Filename C:FLAC12 Behind The Smile.wav Pre-gap length 0:00:00.38 Peak level 60.6 %
Extraction speed 7.0 X
Track quality 99.9 %
Test CRC 2ED15FB9
Copy CRC 2ED15FB9
Accurately ripped (confidence 4) [190B1B87] (AR v1)
Copy OK

Track 13 Filename C:FLAC13 The Ones You Love.wav Pre-gap length 0:00:00.53 Peak level 77.6 %
Extraction speed 7.8 X
Track quality 100.0 %
Test CRC 3233E83F
Copy CRC 3233E83F
Accurately ripped (confidence 4) [49AB752A] (AR v1)
Copy OK

Track 14 Filename C:FLAC14 Hopelessly.wav Pre-gap length 0:00:00.54 Peak level 75.9 %
Extraction speed 6.7 X
Track quality 100.0 %
Test CRC DC81E5E1
Copy CRC DC81E5E1
Accurately ripped (confidence 4) [76F15F7D] (AR v1)
Copy OK

Track 15 Filename C:FLAC15 Waiting For The Bells To Ring.wav Pre-gap length 0:00:00.37 Peak level 77.6 %
Extraction speed 8.2 X
Track quality 100.0 %
Test CRC A833CB26
Copy CRC A833CB26
Accurately ripped (confidence 4) [F19CB486] (AR v1)
Copy OK

Track 16 Filename C:FLAC16 A Dream For Us.wav Pre-gap length 0:00:00.53 Peak level 78.8 %
Extraction speed 8.9 X
Track quality 100.0 %
Test CRC E83A44D2
Copy CRC E83A44D2
Accurately ripped (confidence 4) [1608E612] (AR v1)
Copy OK

Track 17 Filename C:FLAC17 Body And Soul.wav Pre-gap length 0:00:00.44 Peak level 87.0 %
Extraction speed 8.7 X
Track quality 99.9 %
Test CRC 8AB7E9CD
Copy CRC 8AB7E9CD
Accurately ripped (confidence 4) [8750FC76] (AR v1)
Copy OK

Track 18 Filename C:FLAC18 When You Love Someone.wav Pre-gap length 0:00:00.36 Peak level 77.6 %
Extraction speed 9.0 X
Track quality 99.9 %
Test CRC 2D102A9F
Copy CRC 2D102A9F
Accurately ripped (confidence 4) [796E9D35] (AR v1)
Copy OK

All tracks accurately ripped

No errors occurred

End of status report

---- CUETools DB Plugin V2.1.3

[CTDB TOCID: aSC7yN.nzP27ibPejdi4HnmJ6M8-] found, Submit result: aSC7yN.nzP27ibPejdi4HnmJ6M8- has been confirmed
[a42bd030] (3/3) Accurately ripped

==== Log checksum 166C11F05409703C02D28D4E3CD6DCFAAF4CFDC56727BDCE28D1E7B3D74E728C ====

foobar2000 1.2 / Dynamic Range Meter 1.1.1
log date: 2014-10-22 16:57:42

--
Analyzed: Rick Astley / Together Forever (The Best Of) CD02
--

DR Peak RMS Duration Track
--
DR12 -3.29 dB -18.38 dB 4:51 01-Cry For Help
DR14 -0.98 dB -18.31 dB 3:53 02-Move Right Out
DR13 -1.97 dB -17.71 dB 3:09 03-Never Knew Love
DR16 -2.00 dB -19.62 dB 4:00 04-I Don't Want To Be Your Lover
DR13 -2.93 dB -17.85 dB 4:27 05-In The Name Of Love
DR13 -1.57 dB -17.56 dB 4:11 06-Be With You
DR14 0.00 dB -18.84 dB 4:17 07-Really Got A Problem
DR15 0.00 dB -17.05 dB 3:29 08-Is This Really Love
DR15 0.00 dB -17.68 dB 4:44 09-This Must Be Heaven
DR12 -2.29 dB -17.74 dB 5:17 10-The Bottom Line
DR13 -1.78 dB -17.78 dB 5:12 11-Wonderful You
DR13 -4.34 dB -20.60 dB 4:36 12-Behind The Smile
DR12 -2.20 dB -16.51 dB 4:38 13-The Ones You Love
DR12 -2.39 dB -16.40 dB 3:36 14-Hopelessly
DR11 -2.20 dB -15.69 dB 4:52 15-Waiting For The Bells To Ring
DR11 -2.07 dB -15.98 dB 6:08 16-A Dream For Us
DR12 -1.20 dB -15.13 dB 4:10 17-Body And Soul
DR12 -2.20 dB -16.44 dB 4:14 18-When You Love Someone
--

Number of tracks: 18
Official DR value: DR13

Samplerate: 44100 Hz
Channels: 2
Bits per sample: 16
Bitrate: 847 kbps
Codec: FLAC
=

http://i67.fastpic.ru/big/2014/1025/b4/01ca95870e321f1cc99879a963d245b4.jpg

http://i65.fastpic.ru/big/2014/1025/bb/03f0f047bd18168a7b14e406ef2491bb.jpg


DOWNLOAD
(Premium Recommended)


All above links are interchangable. No password
Direct Download

Tags: Astley, Together, Forever
Departed Return Vol | Rhinoceros Ita Download Torrents | Produto Key Windows Enterprise | Game Of Thrones S p Rodfile | Bangladeshi Sex Stories Audio | Cubase For Mac Mavericks | Article Directory All Rights Reserved Hot Articles Rk Rsmocunl Wwkoybu | Massive Trap Soundbanks Free Download | Camworks Vs Mastercam | Kingdom Of Plants Ep Solving The Secrets | Dpack Y Blufftitler Full | Va Grand Club S Ounds Finest P Rogressive | Metart Films Snow Fun | Dreamweaver Cc Amtlib Crack | Illustrator Cc Amtlib | Far Cry Return To Paradise Pc Torenz | Mail Hz Fuyi Locus | Yui Akane Download Rk Rsdroe | Bonnie Bianco The Stage Rar | Adobe Acrobat X Pro Crack Amtlib

Rick Astley Together Forever The Best Of Rick Astley 2007 2CD Download via Hotfile Rapidshare Fileserve Megaupload & FileSonic, Rick Astley Together Forever The Best Of Rick Astley 2007 2CD free torrent downloads included crack, serial, keygen.


Add comments

Your Name:
Your E-Mail:

Security Code:
Include security image CAPCHA.
update code
Insert Code: