Captain Beefheart Bat Chain Puller 1976 {2012 Vaulternative Records Remaster} [re-up]

Download Now


http://i63.fastpic.ru/big/2014/1025/7c/5df9ec358c6b4df0961b9cb32113107c.jpg
Captain Beefheart - Bat Chain Puller (1976) {2012 Vaulternative Records Remaster}
EAC rip (secure mode) | FLAC (tracks)+CUE+LOG -> 363 Mb | MP3 @320 -> 139 Mb
Full Artwork @ 600 dpi (png) -> 552 Mb | 5% repair rar
© 2012 Vaulternative Records / Zappa.com | VR2012-1
Rock / Experimental Rock

"A long-lost Captain Beefheart album is to finally be released, on what would have been Don Van Vliet's 71st birthday. Bat Chain Puller was recorded in 1976 but shelved later that year, due to a dispute between Frank Zappa and his former manager, Herb Cohen. Bat Chain Puller was originally intended to be the follow-up to 1974's maligned Bluejeans & Moonbeams, after Vliet recruited a new band. Zappa produced the sessions, and tracks like Owed t'Alex and The Floppy Boot Stomp made it all the way to Beefheart's label, Virgin, as well as several journalists. Unfortunately that's as far as things got. When Zappa sued Cohen, Bat Chain Puller was caught in the litigation and the album was shelved. Although many of Bat Chain Puller's songs were re-recorded for subsequent Beefheart releases, the original record has only been available among fans, as a popular bootleg."


http://i67.fastpic.ru/big/2014/1025/53/1730339336f07aa68839d113270c0553.jpg

"More than three decades later - and just over a year after Vliet's death - Zappa's estate has announced that Bat Chain Puller will officially see the light of day. The album is available for pre-order on CD, a release that comprises the 12 original tracks and three bonus cuts. It will arrive on shelves on 15 January, Vliet's birthday. "The tape is owned by the Zappa estate and although Don didn't want it released they've been true to the work," explained Beefheart biographer Mike Barnes. Liner notes have been composed by Magic Band members Denny Walley and John French, who mixed the album.

Vliet died on 17 December 2010, of complications from multiple sclerosis."


http://i66.fastpic.ru/big/2014/1025/4b/15b2269982680dab0587cd4a11611a4b.jpg


INFO
More INFO


Personnel:
Captain Beefheart (Don Van Vliet) - vocals, harmonica, soprano saxophone
John "Drumbo" French - drums, percussion, guitar, music director
Denny "Feelers Rebo" Walley - guitar, accordion
Jeff Moris Tepper - guitar
John Thomas - piano, Rhodes electric piano, Mini Moog

http://i67.fastpic.ru/big/2014/1025/13/dda52b1d133bb42875e3b83b8c1a6d13.jpg


tracklist:
01 - Bat Chain Puller
02 - Seam Crooked Sam
03 - Harry Irene
04 - 81 Poop Hatch
05 - Flavor Bud Living
06 - Brick Bats
07 - Floppy Boot Stomp
08 - Ah Carrot Is As Close As Ah Rabbit Gets To Ah Diamond
09 - Owed T' Alex
10 - Odd Jobs
11 - Human Totem Pole (The 1000th And 10th Day Of The Human Totem Pole)
12 - Apes-Ma
13 - Bat Chain Puller (Alternate Mix) (bonus track)
14 - Candle Mambo (bonus track)
15 - Hobo-Ism (bonus track)

Exact Audio Copy V1.0 beta 3 from 29. August 2011

EAC extraction logfile from 15. October 2014, 20:53

Captain Beefheart / Bat Chain Puller

Used drive : ATAPI iHAS124 B Adapter: 2 ID: 1

Read mode : Secure
Utilize accurate stream : Yes
Defeat audio cache : Yes
Make use of C2 pointers : No

Read offset correction : 6
Overread into Lead-In and Lead-Out : No
Fill up missing offset samples with silence : Yes
Delete leading and trailing silent blocks : No
Null samples used in CRC calculations : Yes
Used interface : Native Win32 interface for Win NT & 2000
Gap handling : Appended to previous track

Used output format : User Defined Encoder
Selected bitrate : 1024 kBit/s
Quality : High
Add ID3 tag : No
Command line compressor : C:Program Files (x86)FLAC Frontendtoolsflac.exe
Additional command line options : -8 -V -T "ARTIST=%artist%" -T "TITLE=%title%" -T "ALBUM=%albumtitle%" -T "DATE=%year%" -T "TRACKNUMBER=%tracknr%" -T "TOTALTRACKS=%numtracks%" -T "GENRE=%genre%" -T "ALBUMARTIST=%albumartist%" -T "ALBUM ARTIST=%albumartist%" -T "COMMENT=EAC Secure Mode, Test & Copy, AccurateRip, FLAC -8" %source%

TOC of the extracted CD Track | Start | Length | Start sector | End sector
---
1 | 0:00.00 | 5:07.35 | 0 | 23059
2 | 5:07.35 | 3:09.10 | 23060 | 37244
3 | 8:16.45 | 3:25.59 | 37245 | 52678
4 | 11:42.29 | 2:35.55 | 52679 | 64358
5 | 14:18.09 | 1:49.68 | 64359 | 72601
6 | 16:08.02 | 4:27.20 | 72602 | 92646
7 | 20:35.22 | 3:57.35 | 92647 | 110456
8 | 24:32.57 | 1:37.32 | 110457 | 117763
9 | 26:10.14 | 3:19.31 | 117764 | 132719
10 | 29:29.45 | 5:14.64 | 132720 | 156333
11 | 34:44.34 | 5:49.63 | 156334 | 182571
12 | 40:34.22 | 0:44.00 | 182572 | 185871
13 | 41:18.22 | 5:05.23 | 185872 | 208769
14 | 46:23.45 | 3:25.02 | 208770 | 224146
15 | 49:48.47 | 8:18.50 | 224147 | 261546

Track 1 Filename C:Captain Beefheart - Bat Chain Puller (1976) {2012 Vaulternative Records Remaster}1 - Bat Chain Puller.wav Pre-gap length 0:00:02.00 Peak level 100.0 %
Extraction speed 3.5 X
Track quality 100.0 %
Test CRC 5EC51079
Copy CRC 5EC51079
Accurately ripped (confidence 15) [3CC03A5A] (AR v2)
Copy OK

Track 2 Filename C:Captain Beefheart - Bat Chain Puller (1976) {2012 Vaulternative Records Remaster}2 - Seam Crooked Sam.wav Peak level 100.0 %
Extraction speed 3.7 X
Track quality 100.0 %
Test CRC 92A499DC
Copy CRC 92A499DC
Accurately ripped (confidence 17) [716E684C] (AR v2)
Copy OK

Track 3 Filename C:Captain Beefheart - Bat Chain Puller (1976) {2012 Vaulternative Records Remaster}3 - Harry Irene.wav Peak level 100.0 %
Extraction speed 4.0 X
Track quality 100.0 %
Test CRC 1C079FD4
Copy CRC 1C079FD4
Accurately ripped (confidence 17) [D681CED4] (AR v2)
Copy OK

Track 4 Filename C:Captain Beefheart - Bat Chain Puller (1976) {2012 Vaulternative Records Remaster}4 - 81 Poop Hatch.wav Peak level 99.9 %
Extraction speed 4.0 X
Track quality 100.0 %
Test CRC E5AAB93E
Copy CRC E5AAB93E
Accurately ripped (confidence 17) [C5C2CA10] (AR v2)
Copy OK

Track 5 Filename C:Captain Beefheart - Bat Chain Puller (1976) {2012 Vaulternative Records Remaster}5 - Flavor Bud Living.wav Peak level 98.9 %
Extraction speed 2.6 X
Track quality 99.9 %
Test CRC 4683ED09
Copy CRC 4683ED09
Accurately ripped (confidence 17) [377F4FFE] (AR v2)
Copy OK

Track 6 Filename C:Captain Beefheart - Bat Chain Puller (1976) {2012 Vaulternative Records Remaster}6 - Brick Bats.wav Peak level 100.0 %
Extraction speed 3.9 X
Track quality 99.9 %
Test CRC BB60F01F
Copy CRC BB60F01F
Accurately ripped (confidence 17) [4AC9F58D] (AR v2)
Copy OK

Track 7 Filename C:Captain Beefheart - Bat Chain Puller (1976) {2012 Vaulternative Records Remaster}7 - Floppy Boot Stomp.wav Peak level 100.0 %
Extraction speed 5.0 X
Track quality 100.0 %
Test CRC 7B1AC66C
Copy CRC 7B1AC66C
Accurately ripped (confidence 17) [6DDDF1D6] (AR v2)
Copy OK

Track 8 Filename C:Captain Beefheart - Bat Chain Puller (1976) {2012 Vaulternative Records Remaster}8 - Ah Carrot Is As Close As Ah Rabbit Gets To Ah Diamond.wav Peak level 99.9 %
Extraction speed 4.3 X
Track quality 100.0 %
Test CRC 902E4374
Copy CRC 902E4374
Accurately ripped (confidence 17) 848D178 (AR v2)
Copy OK

Track 9 Filename C:Captain Beefheart - Bat Chain Puller (1976) {2012 Vaulternative Records Remaster}9 - Owed T' Alex.wav Peak level 100.0 %
Extraction speed 5.2 X
Track quality 100.0 %
Test CRC 69BC19EA
Copy CRC 69BC19EA
Accurately ripped (confidence 17) [EB6DE44F] (AR v2)
Copy OK

Track 10 Filename C:Captain Beefheart - Bat Chain Puller (1976) {2012 Vaulternative Records Remaster}10 - Odd Jobs.wav Peak level 100.0 %
Extraction speed 5.7 X
Track quality 100.0 %
Test CRC E13FB1F0
Copy CRC E13FB1F0
Accurately ripped (confidence 17) [CE2F7FD5] (AR v2)
Copy OK

Track 11 Filename C:Captain Beefheart - Bat Chain Puller (1976) {2012 Vaulternative Records Remaster}11 - Human Totem Pole (The 1000th And 10th Day Of The Human Totem Pole).wav Peak level 100.0 %
Extraction speed 6.2 X
Track quality 100.0 %
Test CRC 21287A44
Copy CRC 21287A44
Accurately ripped (confidence 18) [01B435FC] (AR v2)
Copy OK

Track 12 Filename C:Captain Beefheart - Bat Chain Puller (1976) {2012 Vaulternative Records Remaster}12 - Apes-Ma.wav Peak level 70.5 %
Extraction speed 3.6 X
Track quality 100.0 %
Test CRC 1FD80642
Copy CRC 1FD80642
Accurately ripped (confidence 18) [CF102950] (AR v2)
Copy OK

Track 13 Filename C:Captain Beefheart - Bat Chain Puller (1976) {2012 Vaulternative Records Remaster}13 - Bat Chain Puller (Alternate Mix) (bonus track).wav Peak level 100.0 %
Extraction speed 6.5 X
Track quality 100.0 %
Test CRC 54AFFAD4
Copy CRC 54AFFAD4
Accurately ripped (confidence 18) [D999DB3C] (AR v2)
Copy OK

Track 14 Filename C:Captain Beefheart - Bat Chain Puller (1976) {2012 Vaulternative Records Remaster}14 - Candle Mambo (bonus track).wav Peak level 100.0 %
Extraction speed 6.3 X
Track quality 100.0 %
Test CRC C1C68C5D
Copy CRC C1C68C5D
Accurately ripped (confidence 18) B357CF6 (AR v2)
Copy OK

Track 15 Filename C:Captain Beefheart - Bat Chain Puller (1976) {2012 Vaulternative Records Remaster}15 - Hobo-Ism (bonus track).wav Peak level 100.0 %
Extraction speed 6.4 X
Track quality 99.9 %
Test CRC 6358E7A8
Copy CRC 6358E7A8
Accurately ripped (confidence 18) [11FA2A7A] (AR v2)
Copy OK

All tracks accurately ripped

No errors occurred

End of status report

==== Log checksum 617B2F44E27E75EB40C9C47CEF0E364B0D101551E0610C56AFD2BA5E9872291F ====

http://i66.fastpic.ru/big/2014/1025/60/06dc0188721439a094688a5d20dc2f60.jpg

http://i67.fastpic.ru/big/2014/1025/88/e6e82d7eadec6669aad44687967dbd88.jpg


DOWNLOAD
(Premium Recommended)


All above links are interchangable. No password
Direct Download

Tags: Remaster, Records, Vaulternative, Beefheart
Activador Windows Build Bittorrent | Free Vscocam Collection | Cubase Activation Code Mac Osx | Northstar Reading And Writing Torrent Download | Kapringen Zippyshare Rk Rsmbltmb Y Rk Rshx | Free Audiojungle Logo | Craigs Restorative Dental Materials th Edition Rk Rsofexptponxkiv | Teddy Floppy Ear Mt Adventure Torrent | Spacemen Playing With Fire Zip | Communicating In Small Groups th Ed Download | Autodesk Advance Steel Keygentorrent | Download Get The gts Rk Rs ffitywnl | Woodman Castingx Sirale Rk Rsq | Children Erotic Video | Steiberg Cubase Patcher Password | Call Of Duty Modern Warfare Highly Compressed | Amtlib Dll Cs Does Not Working For Acrobat X Pro Rk | Small Angel Sex | When Is Battle Mode Coming For Rise Of Berk

Captain Beefheart Bat Chain Puller 1976 {2012 Vaulternative Records Remaster} [re-up] Download via Hotfile Rapidshare Fileserve Megaupload & FileSonic, Captain Beefheart Bat Chain Puller 1976 {2012 Vaulternative Records Remaster} [re-up] free torrent downloads included crack, serial, keygen.


Add comments

Your Name:
Your E-Mail:

Security Code:
Include security image CAPCHA.
update code
Insert Code: