New Model Army 30th Anniversary Concerts 2011 4CD&2DVD

Download Now

http://i68.fastpic.ru/big/2014/1028/79/682ac3d7ceacadfd5f7f02b3023ed579.jpg

New Model Army - 30th Anniversary Concerts (2011) (4CD+2DVD)
2xDVD9 | VIDEO_TS | MPEG-2 Video, NTSC 16:9 (720:480), 29.97fps, 7755kbps | LPCM 2.0 | 138+143min | 7600+7800Mb
4CD | Flac + Cue + Log | 1850Mb
Rock | Nyquest NYQ005 | rec: 2010 | covers

To their impassioned cult of fans, New Model Army were one of the best post-punk outfits Great Britain ever produced. Combining the gut-level force of punk with the anthemic political fervor of U2 and the Alarm, as well as the urban protest folk of Billy Bragg, NMA sounded like few other bands mining similar post-punk territory. Their attack was hard, spare, and precise, but as time wore on, they were just as likely to deliver modern-day folk-rock replete with acoustic guitar, violin, and harmonica.

Throughout their career, they remained staunch advocates of the British working class, occasionally tempering their leftist, anti-Thatcher political fury with moments of personal introspection. Their shout-along anthems often borrowed the football-chant feel of Oi!, but NMA were far less given to rabble-rousing, instead aiming for intelligent dissidence. True, that could sometimes translate into preachy sloganeering, but NMA's best work earned them tremendous acclaim in the U.K., where their singles regularly placed in the lower reaches of the pop charts. U.K.-specific lyrical references, coupled with visa problems that sometimes made touring difficult, unfortunately ensured that they were all but ignored in the U.S. Still, they maintained a strong following in Europe, and leader Justin Sullivan managed to keep them going for more than two decades.
The 30th Anniversary Concerts: Recorded live at The Forum, Kentish Town London. Friday and Saturday Night, 3rd and 4th December 2010. DVD Disc 1 as Friday Night (CD1 + Cd2), DVD Disc 2 as Saturday Night (CD 1 + CD2).
Produced and directed by Dave Meehan for Nyquest Ltd in association with New Model Army.
Strictly limited to 1500 copies.

Tracks:
Friday Night

cd1:
01. Better Than Them (3:58)
02. Turn Away (4:56)
03. Dawn (5:00)
04. Higher Wall (4:20)
05. Drummy B (4:08)
06. Fate (3:12)
07. Bluebeat (4:17)
08. Courage (3:44)
09. The Attack (4:18)
10. Over The Wire (4:31)
11. Vengeance (4:25)
12. Whitelight (5:04)
13. Drag It Down (3:40)
14. Wonderful Way To Go (4:52)
15. Today Is A Good Day (4:03)
16. A Liberal Education (5:45)
17. Flying Through The Smoke (3:42)
~ (73:56)

cd2:
01. No Sense (3:30)
02. 51st State (4:02)
03. Mambo Queen Of The Sandstone City (5:36)
04. Orange Tree Roads (3:51)
05. High (5:44)
06. White Coats (5:58)
07. Green And Grey (6:33)
08. These Words (3:46)
09. Brother (6:58)
10. Poison Street (3:42)
11. Wired (3:12)
12. Betcha (4:07)
~ (57:00)

Saturday Night
cd3:
01. Heroes (4:50)
02. Snelsmore Wood (4:19)
03. Ballad Of Bodmin Pill (5:53)
04. Another Imperial Day (2:52)
05. You Weren't There (4:08)
06. Lovesongs (3:48)
07. Space (4:48)
08. Modern Times (4:06)
09. Ocean Rising (5:27)
10. Island (5:33)
11. Christian Militia (3:42)
12. Long Goodbye (3:18)
13. Falling (4:34)
14. One Of The Chosen (4:51)
15. Carlisle Road (4:04)
16. The Hunt (4:37)
~ (70:50)

cd4:
01. Red Earth (5:50)
02. Get Me Out (4:02)
03. Vagabonds (6:22)
04. Knife (3:40)
05. Autumn (4:30)
06. Here Comes The War (7:27)
07. Purity (4:48)
08. No Rest (7:02)
09. Marrakesh (3:47)
10. Stupid Questions (3:44)
11. 225 (5:48)
12. Belive It (4:29)
13. I Love The World (6:44)
~ (68:13)

DVD1: Friday Night
DVD2: Saturday Night

Exact Audio Copy V1.0 beta 1 from 15. November 2010

EAC extraction logfile from 1. June 2011, 15:54

New Model Army / 30th Anniversary Concerts (CD1)

Used drive : ATAPI iHBS112 2 Adapter: 1 ID: 1

Read mode : Secure
Utilize accurate stream : Yes
Defeat audio cache : Yes
Make use of C2 pointers : No

Read offset correction : 6
Overread into Lead-In and Lead-Out : No
Fill up missing offset samples with silence : Yes
Delete leading and trailing silent blocks : No
Null samples used in CRC calculations : Yes
Used interface : Native Win32 interface for Win NT & 2000
Gap handling : Appended to previous track

Used output format : User Defined Encoder
Selected bitrate : 768 kBit/s
Quality : High
Add ID3 tag : No
Command line compressor : C:Program Files (x86)Exact Audio CopyFlacflac.exe
Additional command line options : -8 -V -T "ARTIST=%a" -T "TITLE=%t" -T "ALBUM=%g" -T "DATE=%y" -T "TRACKNUMBER=%n" -T "TOTALTRACKS=%x" -T "GENRE=%m" -T "ALBUMARTIST=%v" -T "ALBUM ARTIST=%v" -T "COMMENT=EAC Secure Mode, Test & Copy, AccurateRip, FLAC -8" %s

TOC of the extracted CD Track | Start | Length | Start sector | End sector
---
1 | 0:00.00 | 3:57.64 | 0 | 17838
2 | 3:57.64 | 4:56.37 | 17839 | 40075
3 | 8:54.26 | 5:00.01 | 40076 | 62576
4 | 13:54.27 | 4:20.06 | 62577 | 82082
5 | 18:14.33 | 4:08.09 | 82083 | 100691
6 | 22:22.42 | 3:11.46 | 100692 | 115062
7 | 25:34.13 | 4:17.19 | 115063 | 134356
8 | 29:51.32 | 3:44.27 | 134357 | 151183
9 | 33:35.59 | 4:17.63 | 151184 | 170521
10 | 37:53.47 | 4:30.68 | 170522 | 190839
11 | 42:24.40 | 4:25.35 | 190840 | 210749
12 | 46:50.00 | 5:03.51 | 210750 | 233525
13 | 51:53.51 | 3:39.69 | 233526 | 250019
14 | 55:33.45 | 4:51.43 | 250020 | 271887
15 | 60:25.13 | 4:03.35 | 271888 | 290147
16 | 64:28.48 | 5:45.06 | 290148 | 316028
17 | 70:13.54 | 3:42.09 | 316029 | 332687

Track 1 Filename C:0_Music1 - Better Than Them.wav Pre-gap length 0:00:02.00 Peak level 100.0 %
Extraction speed 4.6 X
Track quality 100.0 %
Test CRC 1ACC6FDC
Copy CRC 1ACC6FDC
Track not present in AccurateRip database
Copy OK

Track 2 Filename C:0_Music2 - Turn Away.wav Peak level 100.0 %
Extraction speed 5.3 X
Track quality 100.0 %
Test CRC 366B48D8
Copy CRC 366B48D8
Track not present in AccurateRip database
Copy OK

Track 3 Filename C:0_Music3 - Dawn.wav Peak level 100.0 %
Extraction speed 5.8 X
Track quality 100.0 %
Test CRC 79FE9C2F
Copy CRC 79FE9C2F
Track not present in AccurateRip database
Copy OK

Track 4 Filename C:0_Music4 - Higher Wall.wav Peak level 100.0 %
Extraction speed 6.1 X
Track quality 100.0 %
Test CRC E2D6D0C1
Copy CRC E2D6D0C1
Track not present in AccurateRip database
Copy OK

Track 5 Filename C:0_Music5 - Drummy B.wav Peak level 100.0 %
Extraction speed 6.5 X
Track quality 100.0 %
Test CRC F31D5957
Copy CRC F31D5957
Track not present in AccurateRip database
Copy OK

Track 6 Filename C:0_Music6 - Fate.wav Peak level 100.0 %
Extraction speed 5.1 X
Track quality 99.9 %
Test CRC 51E84813
Copy CRC 51E84813
Track not present in AccurateRip database
Copy OK

Track 7 Filename C:0_Music7 - Bluebeat.wav Peak level 100.0 %
Extraction speed 7.1 X
Track quality 100.0 %
Test CRC DEB6DAEC
Copy CRC DEB6DAEC
Track not present in AccurateRip database
Copy OK

Track 8 Filename C:0_Music8 - Courage.wav Peak level 100.0 %
Extraction speed 7.2 X
Track quality 100.0 %
Test CRC 68288465
Copy CRC 68288465
Track not present in AccurateRip database
Copy OK

Track 9 Filename C:0_Music9 - The Attack.wav Peak level 100.0 %
Extraction speed 7.7 X
Track quality 100.0 %
Test CRC 414E109B
Copy CRC 414E109B
Track not present in AccurateRip database
Copy OK

Track 10 Filename C:0_Music10 - Over The Wire.wav Peak level 100.0 %
Extraction speed 8.0 X
Track quality 100.0 %
Test CRC E1AE38F9
Copy CRC E1AE38F9
Track not present in AccurateRip database
Copy OK

Track 11 Filename C:0_Music11 - Vengeance.wav Peak level 100.0 %
Extraction speed 8.3 X
Track quality 100.0 %
Test CRC 24C9BD1E
Copy CRC 24C9BD1E
Track not present in AccurateRip database
Copy OK

Track 12 Filename C:0_Music12 - Whitelight.wav Peak level 100.0 %
Extraction speed 8.7 X
Track quality 100.0 %
Test CRC 49022531
Copy CRC 49022531
Track not present in AccurateRip database
Copy OK

Track 13 Filename C:0_Music13 - Drag It Down.wav Peak level 100.0 %
Extraction speed 8.6 X
Track quality 100.0 %
Test CRC AE35B8E5
Copy CRC AE35B8E5
Track not present in AccurateRip database
Copy OK

Track 14 Filename C:0_Music14 - Wonderful Way To Go.wav Peak level 100.0 %
Extraction speed 7.7 X
Track quality 99.9 %
Test CRC 606BDEA7
Copy CRC 606BDEA7
Track not present in AccurateRip database
Copy OK

Track 15 Filename C:0_Music15 - Today Is A Good Day.wav Peak level 100.0 %
Extraction speed 9.3 X
Track quality 100.0 %
Test CRC 2532FE18
Copy CRC 2532FE18
Track not present in AccurateRip database
Copy OK

Track 16 Filename C:0_Music16 - A Liberal Education.wav Peak level 100.0 %
Extraction speed 9.9 X
Track quality 100.0 %
Test CRC 4EC0FF00
Copy CRC 4EC0FF00
Track not present in AccurateRip database
Copy OK

Track 17 Filename C:0_Music17 - Flying Through The Smoke.wav Peak level 100.0 %
Extraction speed 9.6 X
Track quality 100.0 %
Test CRC 1A27E595
Copy CRC 1A27E595
Track not present in AccurateRip database
Copy OK

None of the tracks are present in the AccurateRip database

No errors occurred

End of status report

==== Log checksum AAF592A2119A86D28E346C24C7A191E5DFF144C75D9BE73B4DC24A1BB0D794F2 ====

-----------------
Exact Audio Copy V1.0 beta 1 from 15. November 2010

EAC extraction logfile from 1. June 2011, 16:44

New Model Army / 30th Anniversary Concerts (CD2)

Used drive : ATAPI iHBS112 2 Adapter: 1 ID: 1

Read mode : Secure
Utilize accurate stream : Yes
Defeat audio cache : Yes
Make use of C2 pointers : No

Read offset correction : 6
Overread into Lead-In and Lead-Out : No
Fill up missing offset samples with silence : Yes
Delete leading and trailing silent blocks : No
Null samples used in CRC calculations : Yes
Used interface : Native Win32 interface for Win NT & 2000
Gap handling : Appended to previous track

Used output format : User Defined Encoder
Selected bitrate : 768 kBit/s
Quality : High
Add ID3 tag : No
Command line compressor : C:Program Files (x86)Exact Audio CopyFlacflac.exe
Additional command line options : -8 -V -T "ARTIST=%a" -T "TITLE=%t" -T "ALBUM=%g" -T "DATE=%y" -T "TRACKNUMBER=%n" -T "TOTALTRACKS=%x" -T "GENRE=%m" -T "ALBUMARTIST=%v" -T "ALBUM ARTIST=%v" -T "COMMENT=EAC Secure Mode, Test & Copy, AccurateRip, FLAC -8" %s

TOC of the extracted CD Track | Start | Length | Start sector | End sector
---
1 | 0:00.00 | 3:30.34 | 0 | 15783
2 | 3:30.34 | 4:02.00 | 15784 | 33933
3 | 7:32.34 | 5:35.72 | 33934 | 59130
4 | 13:08.31 | 3:50.68 | 59131 | 76448
5 | 16:59.24 | 5:43.49 | 76449 | 102222
6 | 22:42.73 | 5:57.59 | 102223 | 129056
7 | 28:40.57 | 6:33.02 | 129057 | 158533
8 | 35:13.59 | 3:46.31 | 158534 | 175514
9 | 39:00.15 | 6:58.24 | 175515 | 206888
10 | 45:58.39 | 3:42.33 | 206889 | 223571
11 | 49:40.72 | 3:12.23 | 223572 | 237994
12 | 52:53.20 | 4:06.55 | 237995 | 256499

Track 1 Filename C:0_Music1 - No Sense.wav Pre-gap length 0:00:02.00 Peak level 100.0 %
Extraction speed 1.9 X
Track quality 100.0 %
Test CRC 99D3D214
Copy CRC 99D3D214
Track not present in AccurateRip database
Copy OK

Track 2 Filename C:0_Music2 - 51st State.wav Peak level 100.0 %
Extraction speed 2.1 X
Track quality 100.0 %
Test CRC FC1F08F9
Copy CRC FC1F08F9
Track not present in AccurateRip database
Copy OK

Track 3 Filename C:0_Music3 - Mambo Queen Of The Sandstone City.wav Peak level 100.0 %
Extraction speed 2.5 X
Track quality 100.0 %
Test CRC 2C6761DB
Copy CRC 2C6761DB
Track not present in AccurateRip database
Copy OK

Track 4 Filename C:0_Music4 - Orange Tree Roads.wav Peak level 100.0 %
Extraction speed 2.6 X
Track quality 100.0 %
Test CRC 32C41686
Copy CRC 32C41686
Track not present in AccurateRip database
Copy OK

Track 5 Filename C:0_Music5 - High.wav Peak level 100.0 %
Extraction speed 2.3 X
Track quality 99.9 %
Test CRC F0595268
Copy CRC F0595268
Track not present in AccurateRip database
Copy OK

Track 6 Filename C:0_Music6 - White Coats.wav Peak level 100.0 %
Extraction speed 3.1 X
Track quality 100.0 %
Test CRC 7DED5D30
Copy CRC 7DED5D30
Track not present in AccurateRip database
Copy OK

Track 7 Filename C:0_Music7 - Green And Grey.wav Peak level 100.0 %
Extraction speed 3.4 X
Track quality 100.0 %
Test CRC 7215E1FF
Copy CRC 7215E1FF
Track not present in AccurateRip database
Copy OK

Track 8 Filename C:0_Music8 - These Words.wav Peak level 100.0 %
Extraction speed 3.4 X
Track quality 100.0 %
Test CRC 8C0E26B6
Copy CRC 8C0E26B6
Track not present in AccurateRip database
Copy OK

Track 9 Filename C:0_Music9 - Brother.wav Peak level 100.0 %
Extraction speed 3.8 X
Track quality 100.0 %
Test CRC D2075257
Copy CRC D2075257
Track not present in AccurateRip database
Copy OK

Track 10 Filename C:0_Music10 - Poison Street.wav Peak level 100.0 %
Extraction speed 3.7 X
Track quality 100.0 %
Test CRC 1A4CD755
Copy CRC 1A4CD755
Track not present in AccurateRip database
Copy OK

Track 11 Filename C:0_Music11 - Wired.wav Peak level 100.0 %
Extraction speed 3.7 X
Track quality 100.0 %
Test CRC 878C3DBA
Copy CRC 878C3DBA
Track not present in AccurateRip database
Copy OK

Track 12 Filename C:0_Music12 - Betcha.wav Peak level 100.0 %
Extraction speed 2.8 X
Track quality 99.9 %
Test CRC 7AF8DD82
Copy CRC 7AF8DD82
Track not present in AccurateRip database
Copy OK

None of the tracks are present in the AccurateRip database

No errors occurred

End of status report

==== Log checksum CADADBE1138993E4B997133D14E0D2A6CBD5C4F9DB7DFCE92FBDC280DF70F4DD ====
-------
Exact Audio Copy V1.0 beta 1 from 15. November 2010

EAC extraction logfile from 1. June 2011, 17:39

New Model Army / 30th Anniversary Concerts (CD3)

Used drive : ATAPI iHBS112 2 Adapter: 1 ID: 1

Read mode : Secure
Utilize accurate stream : Yes
Defeat audio cache : Yes
Make use of C2 pointers : No

Read offset correction : 6
Overread into Lead-In and Lead-Out : No
Fill up missing offset samples with silence : Yes
Delete leading and trailing silent blocks : No
Null samples used in CRC calculations : Yes
Used interface : Native Win32 interface for Win NT & 2000
Gap handling : Appended to previous track

Used output format : User Defined Encoder
Selected bitrate : 768 kBit/s
Quality : High
Add ID3 tag : No
Command line compressor : C:Program Files (x86)Exact Audio CopyFlacflac.exe
Additional command line options : -8 -V -T "ARTIST=%a" -T "TITLE=%t" -T "ALBUM=%g" -T "DATE=%y" -T "TRACKNUMBER=%n" -T "TOTALTRACKS=%x" -T "GENRE=%m" -T "ALBUMARTIST=%v" -T "ALBUM ARTIST=%v" -T "COMMENT=EAC Secure Mode, Test & Copy, AccurateRip, FLAC -8" %s

TOC of the extracted CD Track | Start | Length | Start sector | End sector
---
1 | 0:00.00 | 4:50.31 | 0 | 21780
2 | 4:50.31 | 4:18.64 | 21781 | 41194
3 | 9:09.20 | 5:52.53 | 41195 | 67647
4 | 15:01.73 | 2:52.17 | 67648 | 80564
5 | 17:54.15 | 4:07.50 | 80565 | 99139
6 | 22:01.65 | 3:48.30 | 99140 | 116269
7 | 25:50.20 | 4:48.33 | 116270 | 137902
8 | 30:38.53 | 4:06.16 | 137903 | 156368
9 | 34:44.69 | 5:26.60 | 156369 | 180878
10 | 40:11.54 | 5:33.19 | 180879 | 205872
11 | 45:44.73 | 3:41.66 | 205873 | 222513
12 | 49:26.64 | 3:18.24 | 222514 | 237387
13 | 52:45.13 | 4:33.49 | 237388 | 257911
14 | 57:18.62 | 4:51.31 | 257912 | 279767
15 | 62:10.18 | 4:03.42 | 279768 | 298034
16 | 66:13.60 | 4:36.39 | 298035 | 318773

Track 1 Filename C:0_Music1 - Heroes.wav Pre-gap length 0:00:02.00 Peak level 99.2 %
Extraction speed 2.1 X
Track quality 100.0 %
Test CRC C81CB740
Copy CRC C81CB740
Track not present in AccurateRip database
Copy OK

Track 2 Filename C:0_Music2 - Snelsmore Wood.wav Peak level 100.0 %
Extraction speed 2.3 X
Track quality 100.0 %
Test CRC FE8F42C4
Copy CRC FE8F42C4
Track not present in AccurateRip database
Copy OK

Track 3 Filename C:0_Music3 - Ballad Of Bodmin Pill.wav Peak level 99.3 %
Extraction speed 2.6 X
Track quality 100.0 %
Test CRC A1055F37
Copy CRC A1055F37
Track not present in AccurateRip database
Copy OK

Track 4 Filename C:0_Music4 - Another Imperial Day.wav Peak level 93.3 %
Extraction speed 2.5 X
Track quality 100.0 %
Test CRC A61A8C81
Copy CRC A61A8C81
Track not present in AccurateRip database
Copy OK

Track 5 Filename C:0_Music5 - You Weren't There.wav Peak level 95.0 %
Extraction speed 2.8 X
Track quality 100.0 %
Test CRC 12FE7600
Copy CRC 12FE7600
Track not present in AccurateRip database
Copy OK

Track 6 Filename C:0_Music6 - Lovesongs.wav Peak level 100.0 %
Extraction speed 2.9 X
Track quality 100.0 %
Test CRC 7E06654E
Copy CRC 7E06654E
Track not present in AccurateRip database
Copy OK

Track 7 Filename C:0_Music7 - Space.wav Peak level 99.2 %
Extraction speed 3.2 X
Track quality 100.0 %
Test CRC 1441D305
Copy CRC 1441D305
Track not present in AccurateRip database
Copy OK

Track 8 Filename C:0_Music8 - Modern Times.wav Peak level 100.0 %
Extraction speed 3.3 X
Track quality 100.0 %
Test CRC 0611C568
Copy CRC 0611C568
Track not present in AccurateRip database
Copy OK

Track 9 Filename C:0_Music9 - Ocean Rising.wav Peak level 100.0 %
Extraction speed 3.5 X
Track quality 100.0 %
Test CRC 579CA69E
Copy CRC 579CA69E
Track not present in AccurateRip database
Copy OK

Track 10 Filename C:0_Music10 - Island.wav Peak level 100.0 %
Extraction speed 3.7 X
Track quality 100.0 %
Test CRC D5C29454
Copy CRC D5C29454
Track not present in AccurateRip database
Copy OK

Track 11 Filename C:0_Music11 - Christian Militia.wav Peak level 100.0 %
Extraction speed 3.7 X
Track quality 100.0 %
Test CRC 06D22CD8
Copy CRC 06D22CD8
Track not present in AccurateRip database
Copy OK

Track 12 Filename C:0_Music12 - Long Goodbye.wav Peak level 100.0 %
Extraction speed 3.7 X
Track quality 100.0 %
Test CRC 79E1A108
Copy CRC 79E1A108
Track not present in AccurateRip database
Copy OK

Track 13 Filename C:0_Music13 - Falling.wav Peak level 100.0 %
Extraction speed 4.0 X
Track quality 100.0 %
Test CRC FD5E63A1
Copy CRC FD5E63A1
Track not present in AccurateRip database
Copy OK

Track 14 Filename C:0_Music14 - One Of The Chosen.wav Peak level 99.7 %
Extraction speed 4.1 X
Track quality 100.0 %
Test CRC FB597CB7
Copy CRC FB597CB7
Track not present in AccurateRip database
Copy OK

Track 15 Filename C:0_Music15 - Carlisle Road.wav Peak level 100.0 %
Extraction speed 4.2 X
Track quality 100.0 %
Test CRC 57E53DEF
Copy CRC 57E53DEF
Track not present in AccurateRip database
Copy OK

Track 16 Filename C:0_Music16 - The Hunt.wav Peak level 100.0 %
Extraction speed 4.3 X
Track quality 100.0 %
Test CRC 2B02BAC1
Copy CRC 2B02BAC1
Track not present in AccurateRip database
Copy OK

None of the tracks are present in the AccurateRip database

No errors occurred

End of status report

==== Log checksum 815F0CC15DC325F72BA57886FA5DCAFDB202818BBAA0086EFBB59E82FFE5C479 ====
--------
Exact Audio Copy V1.0 beta 1 from 15. November 2010

EAC extraction logfile from 1. June 2011, 18:09

New Model Army / 30th Anniversary Concerts (CD4)

Used drive : ATAPI iHBS112 2 Adapter: 1 ID: 1

Read mode : Secure
Utilize accurate stream : Yes
Defeat audio cache : Yes
Make use of C2 pointers : No

Read offset correction : 6
Overread into Lead-In and Lead-Out : No
Fill up missing offset samples with silence : Yes
Delete leading and trailing silent blocks : No
Null samples used in CRC calculations : Yes
Used interface : Native Win32 interface for Win NT & 2000
Gap handling : Appended to previous track

Used output format : User Defined Encoder
Selected bitrate : 768 kBit/s
Quality : High
Add ID3 tag : No
Command line compressor : C:Program Files (x86)Exact Audio CopyFlacflac.exe
Additional command line options : -8 -V -T "ARTIST=%a" -T "TITLE=%t" -T "ALBUM=%g" -T "DATE=%y" -T "TRACKNUMBER=%n" -T "TOTALTRACKS=%x" -T "GENRE=%m" -T "ALBUMARTIST=%v" -T "ALBUM ARTIST=%v" -T "COMMENT=EAC Secure Mode, Test & Copy, AccurateRip, FLAC -8" %s

TOC of the extracted CD Track | Start | Length | Start sector | End sector
---
1 | 0:00.00 | 5:50.00 | 0 | 26249
2 | 5:50.00 | 4:01.47 | 26250 | 44371
3 | 9:51.47 | 6:22.07 | 44372 | 73028
4 | 16:13.54 | 3:40.25 | 73029 | 89553
5 | 19:54.04 | 4:29.63 | 89554 | 109791
6 | 24:23.67 | 7:26.65 | 109792 | 143306
7 | 31:50.57 | 4:47.43 | 143307 | 164874
8 | 36:38.25 | 7:01.60 | 164875 | 196509
9 | 43:40.10 | 3:47.37 | 196510 | 213571
10 | 47:27.47 | 3:43.40 | 213572 | 230336
11 | 51:11.12 | 5:47.74 | 230337 | 256435
12 | 56:59.11 | 4:29.21 | 256436 | 276631
13 | 61:28.32 | 6:44.13 | 276632 | 306944

Track 1 Filename C:0_Music1 - Red Earth.wav Pre-gap length 0:00:02.00 Peak level 100.0 %
Extraction speed 4.0 X
Track quality 99.9 %
Test CRC 013EC990
Copy CRC 013EC990
Track not present in AccurateRip database
Copy OK

Track 2 Filename C:0_Music2 - Get Me Out.wav Peak level 100.0 %
Extraction speed 4.9 X
Track quality 100.0 %
Test CRC EFCF09A7
Copy CRC EFCF09A7
Track not present in AccurateRip database
Copy OK

Track 3 Filename C:0_Music3 - Vagabonds.wav Peak level 100.0 %
Extraction speed 5.7 X
Track quality 100.0 %
Test CRC 306CEE7C
Copy CRC 306CEE7C
Track not present in AccurateRip database
Copy OK

Track 4 Filename C:0_Music4 - Knife.wav Peak level 100.0 %
Extraction speed 5.8 X
Track quality 100.0 %
Test CRC B96F4DE9
Copy CRC B96F4DE9
Track not present in AccurateRip database
Copy OK

Track 5 Filename C:0_Music5 - Autumn.wav Peak level 100.0 %
Extraction speed 6.3 X
Track quality 100.0 %
Test CRC 0EC4EABD
Copy CRC 0EC4EABD
Track not present in AccurateRip database
Copy OK

Track 6 Filename C:0_Music6 - Here Comes The War.wav Peak level 100.0 %
Extraction speed 7.1 X
Track quality 100.0 %
Test CRC B63BC24A
Copy CRC B63BC24A
Track not present in AccurateRip database
Copy OK

Track 7 Filename C:0_Music7 - Purity.wav Peak level 100.0 %
Extraction speed 6.1 X
Track quality 99.9 %
Test CRC E56C5930
Copy CRC E56C5930
Track not present in AccurateRip database
Copy OK

Track 8 Filename C:0_Music8 - No Rest.wav Peak level 100.0 %
Extraction speed 8.0 X
Track quality 100.0 %
Test CRC 6246DC3D
Copy CRC 6246DC3D
Track not present in AccurateRip database
Copy OK

Track 9 Filename C:0_Music9 - Marrakesh.wav Peak level 92.2 %
Extraction speed 7.7 X
Track quality 100.0 %
Test CRC 1DDD4D12
Copy CRC 1DDD4D12
Track not present in AccurateRip database
Copy OK

Track 10 Filename C:0_Music10 - Stupid Questions.wav Peak level 100.0 %
Extraction speed 8.0 X
Track quality 100.0 %
Test CRC 80C8822F
Copy CRC 80C8822F
Track not present in AccurateRip database
Copy OK

Track 11 Filename C:0_Music11 - 225.wav Peak level 100.0 %
Extraction speed 7.5 X
Track quality 99.9 %
Test CRC 4B369202
Copy CRC 4B369202
Track not present in AccurateRip database
Copy OK

Track 12 Filename C:0_Music12 - Belive It.wav Peak level 100.0 %
Extraction speed 7.2 X
Track quality 99.9 %
Test CRC 462D5F46
Copy CRC 462D5F46
Track not present in AccurateRip database
Copy OK

Track 13 Filename C:0_Music13 - I Love The World.wav Peak level 100.0 %
Extraction speed 8.3 X
Track quality 99.9 %
Test CRC 22578B9D
Copy CRC 22578B9D
Track not present in AccurateRip database
Copy OK

None of the tracks are present in the AccurateRip database

No errors occurred

End of status report

==== Log checksum FC13FBACDE3D8413616924B56952C652BD33BC922ACF1CE56DAC69E55BA6D137 ====

[CUETools log; Date: 2014.10.23. 23:45:38; Version: 2.1.4]
[CTDB TOCID: pAGZqmWbEN_epnOEhqmCWuNHxWM-] found.
Track | CTDB Status
1 | (3/3) Accurately ripped
2 | (3/3) Accurately ripped
3 | (3/3) Accurately ripped
4 | (3/3) Accurately ripped
5 | (3/3) Accurately ripped
6 | (3/3) Accurately ripped
7 | (3/3) Accurately ripped
8 | (3/3) Accurately ripped
9 | (3/3) Accurately ripped
10 | (3/3) Accurately ripped
11 | (3/3) Accurately ripped
12 | (3/3) Accurately ripped
13 | (3/3) Accurately ripped
14 | (3/3) Accurately ripped
15 | (3/3) Accurately ripped
16 | (3/3) Accurately ripped
17 | (3/3) Accurately ripped
[AccurateRip ID: 002d52aa-023ded4e-ee115311] found.
Track [ CRC | V2 ] Status
01 [e04755ca|abae07ea] (2+5/7) Accurately ripped
02 [d689e265|47227bd2] (2+5/7) Accurately ripped
03 [d66d07b6|44d21cb8] (2+5/7) Accurately ripped
04 [03514fd9|fa9a6e2d] (2+5/7) Accurately ripped
05 [ce9418d9|d57ed3d3] (2+5/7) Accurately ripped
06 [0562bd35|55b05d6f] (2+5/7) Accurately ripped
07 [f91a2ac0|61190469] (2+5/7) Accurately ripped
08 [83331cbc|83977a02] (2+5/7) Accurately ripped
09 [6c3487f9|733ec05d] (2+5/7) Accurately ripped
10 [fcd671f2|2ad45f51] (2+5/7) Accurately ripped
11 [e4e98be4|8c452883] (2+5/7) Accurately ripped
12 [3f54df33|e65b641f] (2+5/7) Accurately ripped
13 [4bccf00d|37265d3e] (2+5/7) Accurately ripped
14 [ff53a103|bfbed14b] (2+5/7) Accurately ripped
15 [5b80a832|44cca150] (2+5/7) Accurately ripped
16 [dff12d16|79ea40c0] (2+5/7) Accurately ripped
17 [e5d908ee|13e652d0] (0+5/5) Accurately ripped

Track Peak [ CRC32 ] [W/O NULL] [ LOG ]
-- 100,0 561426C [3DCF6A4B]
01 100,0 [1ACC6FDC] [53FFB2B1] CRC32
02 100,0 [366B48D8] [DD1B2837] CRC32
03 100,0 [79FE9C2F] [666CDD0F] CRC32
04 100,0 [E2D6D0C1] [25029B0F] CRC32
05 100,0 [F31D5957] [41938DCA] CRC32
06 100,0 [51E84813] [9A9DC3D3] CRC32
07 100,0 [DEB6DAEC] [F9A163A5] CRC32
08 100,0 [68288465] 7AEC515 CRC32
09 100,0 [414E109B] [6A5EC1F2] CRC32
10 100,0 [E1AE38F9] [1EE48BE5] CRC32
11 100,0 [24C9BD1E] [6ECF4EE9] CRC32
12 100,0 [49022531] [F1903BBA] CRC32
13 100,0 [AE35B8E5] [D699B175] CRC32
14 100,0 [606BDEA7] [4941E401] CRC32
15 100,0 [2532FE18] [2EF1DB4A] CRC32
16 100,0 [4EC0FF00] [DA1C7D18] CRC32
17 100,0 [1A27E595] [E907A2F7] CRC32
-------
[CUETools log; Date: 2014.10.23. 23:46:12; Version: 2.1.4]
[CTDB TOCID: ex9fyveUZiwK5ytU7NRO5zz63lo-] found.
Track | CTDB Status
1 | (3/3) Accurately ripped
2 | (3/3) Accurately ripped
3 | (3/3) Accurately ripped
4 | (3/3) Accurately ripped
5 | (3/3) Accurately ripped
6 | (3/3) Accurately ripped
7 | (3/3) Accurately ripped
8 | (3/3) Accurately ripped
9 | (3/3) Accurately ripped
10 | (3/3) Accurately ripped
11 | (3/3) Accurately ripped
12 | (3/3) Accurately ripped
[AccurateRip ID: 0019913f-00f1a10e-8a0d5c0c] found.
Track [ CRC | V2 ] Status
01 [00d4ce8c|e9131656] (2+5/7) Accurately ripped
02 [6e846287|917f00e7] (2+5/7) Accurately ripped
03 [00f235c8|9b4318bb] (2+5/7) Accurately ripped
04 [169c2a14|c0007a9c] (2+5/7) Accurately ripped
05 [6c34ce8a|d379b363] (2+5/7) Accurately ripped
06 [cb7e7a84|94017f1a] (2+5/7) Accurately ripped
07 [7dd4ca7d|627d98ce] (2+5/7) Accurately ripped
08 [e26c6f85|ec3ccdcb] (2+5/7) Accurately ripped
09 [fa4cf1b3|ec09afa2] (2+5/7) Accurately ripped
10 [8d18b13f|08078afb] (2+5/7) Accurately ripped
11 [9bdd9b4c|0c9624ba] (2+5/7) Accurately ripped
12 [43677a43|1be5210a] (0+5/5) Accurately ripped

Track Peak [ CRC32 ] [W/O NULL] [ LOG ]
-- 100,0 [532EEB95] [F286E7E2]
01 100,0 [99D3D214] [2852642F] CRC32
02 100,0 [FC1F08F9] E482336 CRC32
03 100,0 [2C6761DB] [FAB6EE33] CRC32
04 100,0 [32C41686] [94DA9962] CRC32
05 100,0 [F0595268] [82C791CC] CRC32
06 100,0 [7DED5D30] [1B9744F8] CRC32
07 100,0 [7215E1FF] [5191D59E] CRC32
08 100,0 [8C0E26B6] [17A8AEC2] CRC32
09 100,0 [D2075257] 72A8C2A CRC32
10 100,0 [1A4CD755] [8DA72626] CRC32
11 100,0 [878C3DBA] [7122D9D9] CRC32
12 100,0 [7AF8DD82] 4369F0F CRC32
------
[CUETools log; Date: 2014.10.24. 9:20:32; Version: 2.1.4]
[CTDB TOCID: zrRiHx1uO8Rc6z.vwHSIFcXqlQ8-] found.
Track | CTDB Status
1 | (3/3) Accurately ripped
2 | (3/3) Accurately ripped
3 | (3/3) Accurately ripped
4 | (3/3) Accurately ripped
5 | (3/3) Accurately ripped
6 | (3/3) Accurately ripped
7 | (3/3) Accurately ripped
8 | (3/3) Accurately ripped
9 | (3/3) Accurately ripped
10 | (3/3) Accurately ripped
11 | (3/3) Accurately ripped
12 | (3/3) Accurately ripped
13 | (3/3) Accurately ripped
14 | (3/3) Accurately ripped
15 | (3/3) Accurately ripped
16 | (3/3) Accurately ripped
[AccurateRip ID: 002988de-01f13303-e0109a10] found.
Track [ CRC | V2 ] Status
01 [fb43c0df|dc10266c] (2+5/7) Accurately ripped
02 64b8561|aeee2fbc (2+5/7) Accurately ripped
03 [ef0a5d1d|8adf5cb1] (2+5/7) Accurately ripped
04 [962df234|3eba504c] (2+5/7) Accurately ripped
05 [0451f99b|7183b081] (2+5/7) Accurately ripped
06 [d87c6c67|7e737e04] (2+5/7) Accurately ripped
07 [04989750|06ff0cd8] (2+5/7) Accurately ripped
08 [68d613a2|ab43efc3] (2+5/7) Accurately ripped
09 [c8c8173f|7752495e] (2+5/7) Accurately ripped
10 [c2100ac4|b9253590] (2+5/7) Accurately ripped
11 [dd40f21d|fa945b46] (2+5/7) Accurately ripped
12 cb665e3|269043a7 (2+5/7) Accurately ripped
13 [35a5226b|b060807f] (2+5/7) Accurately ripped
14 [649209cd|4ba7d92e] (2+5/7) Accurately ripped
15 [0f4c08c5|39670b65] (2+5/7) Accurately ripped
16 [e465f55a|b51fe5eb] (0+5/5) Accurately ripped

Track Peak [ CRC32 ] [W/O NULL] [ LOG ]
-- 100,0 [29F66114] [28A0B329]
01 99,2 [C81CB740] [88873C26] CRC32
02 100,0 [FE8F42C4] [4BF9655C] CRC32
03 99,3 [A1055F37] [F1AF381D] CRC32
04 93,3 [A61A8C81] [5966059B] CRC32
05 95,0 [12FE7600] [56C22B28] CRC32
06 100,0 [7E06654E] 0E4A499 CRC32
07 99,2 [1441D305] [0168510D] CRC32
08 100,0 [0611C568] [89F8A623] CRC32
09 100,0 [579CA69E] [D6B9C0C5] CRC32
10 100,0 [D5C29454] [48AA4644] CRC32
11 100,0 [06D22CD8] [0B0CBEA0] CRC32
12 100,0 [79E1A108] [06DDC9CB] CRC32
13 100,0 [FD5E63A1] [58F86841] CRC32
14 99,7 [FB597CB7] [182A7065] CRC32
15 100,0 [57E53DEF] [0D443915] CRC32
16 100,0 [2B02BAC1] [0EA3A19C] CRC32
------
[CUETools log; Date: 2014.10.23. 23:47:12; Version: 2.1.4]
[CTDB TOCID: 89k4td1SH7hGAUOGGB89gHEiqQs-] found.
Track | CTDB Status
1 | (3/3) Accurately ripped
2 | (3/3) Accurately ripped
3 | (3/3) Accurately ripped
4 | (3/3) Accurately ripped
5 | (3/3) Accurately ripped
6 | (3/3) Accurately ripped
7 | (3/3) Accurately ripped
8 | (3/3) Accurately ripped
9 | (3/3) Accurately ripped
10 | (3/3) Accurately ripped
11 | (3/3) Accurately ripped
12 | (3/3) Accurately ripped
13 | (3/3) Accurately ripped
[AccurateRip ID: 0020869b-01453e1b-b00ffc0d] found.
Track [ CRC | V2 ] Status
01 [4d93836f|aded82bc] (2+5/7) Accurately ripped
02 [33521886|72b92da3] (2+5/7) Accurately ripped
03 [4999e172|67564bd4] (2+5/7) Accurately ripped
04 [3461b632|46e6f2e4] (2+5/7) Accurately ripped
05 [a00a9cae|8650f6d6] (2+5/7) Accurately ripped
06 [d8a65060|402526cc] (2+5/7) Accurately ripped
07 [0da1b354|670bba6d] (2+5/7) Accurately ripped
08 [5abaed47|7af2c666] (2+5/7) Accurately ripped
09 [331cd062|838368b9] (2+5/7) Accurately ripped
10 [04350d19|e97fa88b] (2+5/7) Accurately ripped
11 [a7e7086d|76639608] (2+5/7) Accurately ripped
12 [5a94628a|e0394a90] (2+5/7) Accurately ripped
13 [f5a7464a|154bb9b5] (2+5/7) Accurately ripped

Track Peak [ CRC32 ] [W/O NULL] [ LOG ]
-- 100,0 [C13ECC65] [9CE6B72F]
01 100,0 [013EC990] [27E3833D] CRC32
02 100,0 [EFCF09A7] [1C1C5ACC] CRC32
03 100,0 [306CEE7C] [2EC04434] CRC32
04 100,0 96F4DE9 5C09BE6 CRC32
05 100,0 [0EC4EABD] [E3087E03] CRC32
06 100,0 63BC24A [FEE7D237] CRC32
07 100,0 [E56C5930] [1CCCB516] CRC32
08 100,0 [6246DC3D] [1E2645FE] CRC32
09 92,2 [1DDD4D12] [6ADE45DB] CRC32
10 100,0 [80C8822F] [8B5E6824] CRC32
11 100,0 [4B369202] [8ECFF128] CRC32
12 100,0 [462D5F46] [AE42E8BC] CRC32
13 100,0 [22578B9D] [D8C11015] CRC32

http://i64.fastpic.ru/big/2014/1028/69/de95f593a62b279039453e115ee2cd69.jpg

http://i66.fastpic.ru/big/2014/1028/2e/08fd609d654c5625e46ca419a99c9f2e.jpg

http://i63.fastpic.ru/big/2014/1028/68/60c3612497b3ba006841137f1ab0e868.jpg

DOWNLOAD
(Premium Recommended)

Uploaded.net:
zxptf.CD1.rar
zxptf.CD2.rar
zxptf.CD3.rar
zxptf.CD4.rar
zxptf.covers.rar
zxptf.DVD1.part1.rar
zxptf.DVD1.part2.rar
zxptf.DVD1.part3.rar
zxptf.DVD1.part4.rar
zxptf.DVD1.part5.rar
zxptf.DVD1.part6.rar
zxptf.DVD1.part7.rar
zxptf.DVD2.part1.rar
zxptf.DVD2.part2.rar
zxptf.DVD2.part3.rar
zxptf.DVD2.part4.rar
zxptf.DVD2.part5.rar
zxptf.DVD2.part6.rar
zxptf.DVD2.part7.rar
zxptf.DVD2.part8.rar

Rapidgator.net:
zxptf.DVD1.part2.rar.html
zxptf.DVD1.part3.rar.html
zxptf.DVD1.part4.rar.html
zxptf.DVD1.part5.rar.html
zxptf.DVD1.part6.rar.html
zxptf.DVD1.part7.rar.html
zxptf.DVD2.part2.rar.html
zxptf.DVD2.part3.rar.html
zxptf.DVD2.part4.rar.html
zxptf.DVD2.part5.rar.html
zxptf.DVD2.part6.rar.html
zxptf.DVD2.part7.rar.html
zxptf.DVD2.part8.rar.html

Turbobit.net:
zxptf.CD1.rar.html
zxptf.CD2.rar.html
zxptf.CD3.rar.html
zxptf.CD4.rar.html
zxptf.covers.rar.html
zxptf.DVD1.part1.rar.html
zxptf.DVD1.part2.rar.html
zxptf.DVD1.part3.rar.html
zxptf.DVD1.part4.rar.html
zxptf.DVD1.part5.rar.html
zxptf.DVD1.part6.rar.html
zxptf.DVD1.part7.rar.html
zxptf.DVD2.part1.rar.html
zxptf.DVD2.part2.rar.html
zxptf.DVD2.part3.rar.html
zxptf.DVD2.part4.rar.html
zxptf.DVD2.part5.rar.html
zxptf.DVD2.part6.rar.html
zxptf.DVD2.part7.rar.html
zxptf.DVD2.part8.rar.html

UpDown.bz:
zxptf.CD1.rar
zxptf.CD3.rar
zxptf.covers.rar

All above links are interchangable. No password
Direct Download

Tags: Concerts, Anniversary
Crack Body Sculptor Wordpress | Como Conseguir O Pre Alpha De Project Cars | Silicone Loli Doll | Android Programming Language | Danilo Rea Utorrent | Crack Para Rhinogold | Inna Sexibl Rk | Brazzer Tube Online | Game Of Thrones S Mkv Subtitulado | Farming Simulator Product Key Nedir | Swing Season Episode Tube | Public Notes Normal Version Login Rk Rsi Ddvkhroxfe Rk Rsninls Oyrfmh | Food Bag Mockup Free Download | Kaspersky Pure Key Files Zip Mb | Usernames And Passwords For Eset Nod Antivirus Free Rk | Buried Beds In Spirit Rar | Joy Kills Sorrow Taringa Rk Rsxivrkoecbs Rk Rsub Selm Kqw | Download Video Bokep gp Full Movie

New Model Army 30th Anniversary Concerts 2011 4CD&2DVD Download via Hotfile Rapidshare Fileserve Megaupload & FileSonic, New Model Army 30th Anniversary Concerts 2011 4CD&2DVD free torrent downloads included crack, serial, keygen.


Add comments

Your Name:
Your E-Mail:

Security Code:
Include security image CAPCHA.
update code
Insert Code: