Solution Solution 71 & Divergence 72 1988

Download Now

http://i66.fastpic.ru/big/2014/1029/f8/d0a4febbbc41c6916463db4d0dda0bf8.jpg

Solution - Solution ('71) + Divergence ('72) (1988)
EAC Rip | FLAC: Image+Cue+Log | 448 Mb | MP3 CBR 320 kbps | 173 Mb | Scans | Time: 1:13:09
Genre: Progressive Rock, Jazz Rock | Label: EMI-Bovema B.V. | Cat.鈩? CDP 7 90751 2

"Solution were a Dutch progressive rock band that existed from 1970 to 1983, during which time they released six studio albums and one live album. They incorporated jazz, rock, pop and soul influences, becoming more commercial on their fifth and sixth albums."


Solution | Wikipedia | Progarchives

http://i67.fastpic.ru/big/2014/1029/fb/07494bb1e94dcb7d9568b1e47bcbfbfb.jpg


Track Listing

1. Koan (07:54)
2. Preview (01:00)
3. Phases (12:19)
4. Trane Steps (10:22)
5. Circus Circumstances (07:05)

6. Second Line (08:47)
7. Divergence (06:00)
8. Concentration (12:31)
9. Theme (00:41)
10. New Dimension (06:24)

Produced by John Schuursma and Joop Visser

The Band

Solution (1971)
* Tom Barlage: flute, alto & soprano sax
* Willem Ennes: piano, electric piano, organ
* Peter v. d. Sande: bass, vocals
* Hans Waterman: drums
* Steve Boston: congas and cowbell on "Phases"

Divergence (1972)
* Tom Barlage: saxophone, flute
* Willem Ennes: keyboards
* Guus Willemse: bass guitar, vocals
* Hans Waterman: drums

Notes

The band signed to the small Catfish label and was joined by Peter van der Sande on bass. The quartet recorded their first self titled record in 1971. The influence on this record, a brillant example of early jazz-rock, ranged from Frank Zappa and Soft Machine to John Coltrane and contained an adaption of a classical composition by French composer Jaques Ibert.

For their second record 'Divergence' (1972) the band signed to EMI's progressive subsidiary Harvest and Guus Willemse replaced Van der Sande on bass. Willemse brought not only a rockier side with his semi acoustic Höffner bass, but became also singer of the band. 'Divergence' is as good as the first record with a punchier side and amore pronounced soul influence.

Exact Audio Copy V0.99 prebeta 4 from 23. January 2008

袨褌褔褢褌 EAC 芯斜 懈蟹胁谢械褔械薪懈懈, 胁褘锌芯谢薪械薪薪芯屑 5. 屑邪褉褌邪 2011, 14:08

Solution / Solution / Divergence

袛懈褋泻芯胁芯写: Optiarc DVD RW AD-7200A Adapter: 0 ID: 0

袪械卸懈屑 褔褌械薪懈褟 : 袛芯褋褌芯胁械褉薪芯褋褌褜
袠褋锌芯谢褜蟹芯胁邪薪懈械 褌芯褔薪芯谐芯 锌芯褌芯泻邪 : 袛邪
袨褌泻谢褞褔械薪懈械 泻褝褕邪 邪褍写懈芯 : 袛邪
袠褋锌芯谢褜蟹芯胁邪薪懈械 褍泻邪蟹邪褌械谢械泄 C2 : 袧械褌

袣芯褉褉械泻褑懈褟 褋屑械褖械薪懈褟 锌褉懈 褔褌械薪懈懈 : 48
小锌芯褋芯斜薪芯褋褌褜 褔懈褌邪褌褜 芯斜谢邪褋褌懈 Lead-in 懈 Lead-out : 袧械褌
袟邪锌芯谢薪械薪懈械 锌褉芯锌褍褖械薪薪褘蜒佈嵭夹啃恍拘?褌懈褕懈薪芯泄 : 袛邪
校写邪谢械薪懈械 斜谢芯泻芯胁 褋 褌懈褕懈薪芯泄 胁 薪邪褔邪谢械 懈 泻芯薪褑械 : 袧械褌
袩褉懈 胁褘褔懈褋谢械薪懈褟袰RC 懈褋锌芯谢褜蟹芯胁邪谢懈褋褜 薪褍谢械胁褘械 褋褝屑锌谢褘 : 袛邪
袠薪褌械褉褎械泄褋 : 袙褋褌褉芯械薪薪褘泄 Win32-懈薪褌械褉褎械泄褋 写谢褟 Win NT/2000

袙褘研拘葱叫拘?褎芯褉屑邪褌 : 袩芯谢褜蟹芯胁邪褌械谢褜褋泻懈泄 泻芯写懈褉芯胁褖懈泻
袙褘斜褉邪薪薪褘泄 斜懈褌褉械泄褌 : 768 kBit/s
袣邪褔械褋褌胁芯 : 袙褘褋芯泻懈泄
袛芯斜邪胁谢械薪懈械 ID3-褌褝谐邪 : 袧械褌
校褌懈谢懈褌邪 褋卸邪褌懈褟 : C:Program FilesExact Audio CopyFLACFLAC.EXE
袛芯锌芯谢薪懈褌械谢褜薪褘械 锌邪褉邪屑械褌褉褘 : -6 -V -T "ARTIST=%a" -T "TITLE=%t" -T "ALBUM=%g" -T "DATE=%y" -T "TRACKNUMBER=%n" -T "GENRE=%m" -T "COMMENT=%e" %s -o %d

TOC 懈蟹胁谢械褔褢薪薪芯谐芯 CD 孝褉械泻 | 小褌邪褉褌 | 袛谢懈褌械谢褜薪芯褋褌褜 | 袧邪褔邪谢褜薪褘泄 褋械泻褌芯褉 | 袣芯薪械褔薪褘泄 褋械泻褌芯褉
---------------
1 | 0:00.00 | 7:54.50 | 0 | 35599
2 | 7:54.50 | 1:00.10 | 35600 | 40109
3 | 8:54.60 | 12:19.38 | 40110 | 95572
4 | 21:14.23 | 10:22.30 | 95573 | 142252
5 | 31:36.53 | 7:05.47 | 142253 | 174174
6 | 38:42.25 | 8:47.55 | 174175 | 213754
7 | 47:30.05 | 6:00.38 | 213755 | 240792
8 | 53:30.43 | 12:31.17 | 240793 | 297134
9 | 66:01.60 | 0:41.65 | 297135 | 300274
10 | 66:43.50 | 6:24.63 | 300275 | 329137

啸邪褉邪泻褌械褉懈褋褌懈泻懈 写懈邪锌邪蟹芯薪邪 懈蟹胁谢械褔械薪懈褟 懈 褋芯芯斜褖械薪懈褟 芯斜 芯褕懈斜泻邪?br />
袙褘斜褉邪薪薪褘泄 写懈邪锌邪蟹芯薪 袠屑褟 褎邪泄谢邪 D:Solution - Solution + DivergenceSolution - Solution + Divergence.wav 袩懈泻芯胁褘泄 褍褉芯胁械薪褜 100.0 %
袣邪褔械褋褌胁芯 写懈邪锌邪蟹芯薪邪 100.0 %
CRC 泻芯锌懈懈 F656DA41
袣芯锌懈褉芯胁邪薪懈械... OK

袨褕懈斜芯泻 薪械 锌褉芯懈蟹芯褕谢芯

AccurateRip: 褋胁芯写泻邪

孝褉械泻 1 褌芯褔薪芯械 懈蟹胁谢械褔械薪懈械 (写芯胁械褉懈械 2) [075C6F99]
孝褉械泻 2 褌芯褔薪芯械 懈蟹胁谢械褔械薪懈械 (写芯胁械褉懈械 2) [E3733C66]
孝褉械泻 3 褌芯褔薪芯械 懈蟹胁谢械褔械薪懈械 (写芯胁械褉懈械 2) [C97675BC]
孝褉械泻 4 褌芯褔薪芯械 懈蟹胁谢械褔械薪懈械 (写芯胁械褉懈械 2) [F755E26A]
孝褉械泻 5 褌芯褔薪芯械 懈蟹胁谢械褔械薪懈械 (写芯胁械褉懈械 2) 660AB2E
孝褉械泻 6 褌芯褔薪芯械 懈蟹胁谢械褔械薪懈械 (写芯胁械褉懈械 2) [0FC9A264]
孝褉械泻 7 褌芯褔薪芯械 懈蟹胁谢械褔械薪懈械 (写芯胁械褉懈械 2) [91A97FA1]
孝褉械泻 8 褌芯褔薪芯械 懈蟹胁谢械褔械薪懈械 (写芯胁械褉懈械 2) [8363A4DB]
孝褉械泻 9 褌芯褔薪芯械 懈蟹胁谢械褔械薪懈械 (写芯胁械褉懈械 2) [5A020AF8]
孝褉械泻 10 薪械褌 胁 斜邪蟹械 写邪薪薪褘?br />
9 褌褉械泻(懈) 褋泻芯锌懈褉芯胁邪薪褘 褌芯褔薪芯
1 褌褉械泻(懈) 薪械 褋芯写械褉卸邪褌褋褟 胁 斜邪蟹械 AccurateRip

袧械泻芯褌芯褉褘械 褌褉械泻懈 薪械 锌褉芯褕谢懈 锌褉芯胁械褉泻褍 薪邪 褌芯褔薪芯褋褌褜

袣芯薪械褑 芯褌褔褢褌邪
DOWNLOAD
(Premium Recommended)


All above links are interchangable. No password
Direct Download

Tags: Solution, Divergence
Children W Torrent Torrent Download | Public Notes Having Trouble While Logging In Rk Rsj pgk | Jenny Scordamaglia Videolar | Axe Giant The W Rath Of Paul Bu Nyan Movie Subtitles | Mompov Wikipedia | Creating Dynamic Slideshows With Fotomagico And Photoshop Rapidshare | Descargar Seriales Para Nero Essentials | Kannadadogsexs Tories | Catia V Crack Only | Porn Side By Side | Revit Structure Essential Training Download Torrent | Emergency Handbook For Getting Money Fast | Build Public Notes Normal Version Login Lion Rsada Rsadagdivxpl | Bianka Model Set Torrent Download | Vol Interior Lights Torrent Download | Little Miss Alli Sets | Pronvideo Hd In | Pier Stella Moran Set | Little Caprice Latest Movies | Descargar Gratis Fileviewpro Con Serial En Mediafire Rk Rsdamxodw

Solution Solution 71 & Divergence 72 1988 Download via Hotfile Rapidshare Fileserve Megaupload & FileSonic, Solution Solution 71 & Divergence 72 1988 free torrent downloads included crack, serial, keygen.


Add comments

Your Name:
Your E-Mail:

Security Code:
Include security image CAPCHA.
update code
Insert Code: