Jean-Luc Ponty King Kong Jean-Luc Ponty Plays The Music Of Frank Zappa 1970 {Blue Note} [re-up]

Download Now


http://i65.fastpic.ru/big/2014/1031/e5/2b3a7c9b1314729d85753912f0ae5be5.jpg
Jean-Luc Ponty - King Kong. Jean-Luc Ponty Plays The Music Of Frank Zappa (1970) {Blue Note}
EAC rip (secure mode) | FLAC (tracks)+CUE+LOG -> 296 Mb | MP3 @320 -> 105 Mb
Full Artwork @ 600 dpi (png) -> 104 Mb | 5% repair rar
© 1993 Capitol / Blue Note | CDP 0777 7 89539 2 0
Jazz / Post Bop / Fusion / Violin

"Not just an album of interpretations, King Kong: Jean-Luc Ponty Plays the Music of Frank Zappa was an active collaboration; Frank Zappa arranged all of the selections, played guitar on one, and contributed a new, nearly 20-minute orchestral composition for the occasion. Made in the wake of Ponty's appearance on Zappa's jazz-rock masterpiece Hot Rats, these 1969 recordings were significant developments in both musicians' careers. In terms of jazz-rock fusion, Zappa was one of the few musicians from the rock side of the equation who captured the complexity -- not just the feel -- of jazz, and this project was an indicator of his growing credibility as a composer. For Ponty's part, King Kong marked the first time he had recorded as a leader in a fusion-oriented milieu (though Zappa's brand of experimentalism didn't really foreshadow Ponty's own subsequent work)."


Personnel: Jean-Luc Ponty (violin); Frank Zappa (guitar); Ian Underwood (conductor, alto & tenor saxophones); Ernie Watts (alto & tenor saxophones); Gene Estes (vibraphone, percussion); George Duke (piano); Buell Neidlinger, Wilton Felder (bass); Arthur Tripp III, John Guerin (drums).

tracklist:
01 - King Kong
02 - Idiot Bastard Son
03 - Twenty Small Cigars
04 - How Would You Like To Have A Head Like That
05 - Music For Electric Violin And Low Budget Orchestra
06 - America Drinks And Goes Home

Exact Audio Copy V1.0 beta 3 from 29. August 2011

EAC extraction logfile from 25. October 2014, 1:14

Jean-Luc Ponty / King Kong: Jean-Luc Ponty Plays The Music Of Frank Zappa

Used drive : ATAPI iHAS124 B Adapter: 2 ID: 1

Read mode : Secure
Utilize accurate stream : Yes
Defeat audio cache : Yes
Make use of C2 pointers : No

Read offset correction : 6
Overread into Lead-In and Lead-Out : No
Fill up missing offset samples with silence : Yes
Delete leading and trailing silent blocks : No
Null samples used in CRC calculations : Yes
Used interface : Native Win32 interface for Win NT & 2000
Gap handling : Appended to previous track

Used output format : User Defined Encoder
Selected bitrate : 1024 kBit/s
Quality : High
Add ID3 tag : No
Command line compressor : C:Program Files (x86)FLAC Frontendtoolsflac.exe
Additional command line options : -8 -V -T "ARTIST=%artist%" -T "TITLE=%title%" -T "ALBUM=%albumtitle%" -T "DATE=%year%" -T "TRACKNUMBER=%tracknr%" -T "TOTALTRACKS=%numtracks%" -T "GENRE=%genre%" -T "ALBUMARTIST=%albumartist%" -T "ALBUM ARTIST=%albumartist%" -T "COMMENT=EAC Secure Mode, Test & Copy, AccurateRip, FLAC -8" %source%

TOC of the extracted CD Track | Start | Length | Start sector | End sector
---
1 | 0:00.32 | 4:55.03 | 32 | 22159
2 | 4:55.35 | 4:02.72 | 22160 | 40381
3 | 8:58.32 | 5:36.48 | 40382 | 65629
4 | 14:35.05 | 7:17.00 | 65630 | 98404
5 | 21:52.05 | 19:25.42 | 98405 | 185821
6 | 41:17.47 | 2:39.58 | 185822 | 197804

Track 1 Filename C:Jean-Luc Ponty - King Kong. Jean-Luc Ponty Plays The Music Of Frank Zappa (1970) {Blue Note}1 - King Kong.wav Pre-gap length 0:00:02.32 Peak level 92.9 %
Extraction speed 1.9 X
Track quality 100.0 %
Test CRC E16449CC
Copy CRC E16449CC
Accurately ripped (confidence 10) [48DC5335] (AR v2)
Copy OK

Track 2 Filename C:Jean-Luc Ponty - King Kong. Jean-Luc Ponty Plays The Music Of Frank Zappa (1970) {Blue Note}2 - Idiot Bastard Son.wav Pre-gap length 0:00:00.49 Peak level 94.7 %
Extraction speed 2.1 X
Track quality 100.0 %
Test CRC 55690181
Copy CRC 55690181
Accurately ripped (confidence 10) [9679A430] (AR v2)
Copy OK

Track 3 Filename C:Jean-Luc Ponty - King Kong. Jean-Luc Ponty Plays The Music Of Frank Zappa (1970) {Blue Note}3 - Twenty Small Cigars.wav Pre-gap length 0:00:01.72 Peak level 89.9 %
Extraction speed 1.9 X
Track quality 99.9 %
Test CRC 0E4E63F6
Copy CRC 0E4E63F6
Accurately ripped (confidence 10) [C902D7C4] (AR v2)
Copy OK

Track 4 Filename C:Jean-Luc Ponty - King Kong. Jean-Luc Ponty Plays The Music Of Frank Zappa (1970) {Blue Note}4 - How Would You Like To Have A Head Like That.wav Pre-gap length 0:00:02.08 Peak level 96.9 %
Extraction speed 2.8 X
Track quality 100.0 %
Test CRC CE8FEA97
Copy CRC CE8FEA97
Accurately ripped (confidence 10) 9AE90BF (AR v2)
Copy OK

Track 5 Filename C:Jean-Luc Ponty - King Kong. Jean-Luc Ponty Plays The Music Of Frank Zappa (1970) {Blue Note}5 - Music For Electric Violin And Low Budget Orchestra.wav Pre-gap length 0:00:00.73 Peak level 96.2 %
Extraction speed 3.4 X
Track quality 100.0 %
Test CRC E9DC3336
Copy CRC E9DC3336
Accurately ripped (confidence 10) [DF053CBE] (AR v2)
Copy OK

Track 6 Filename C:Jean-Luc Ponty - King Kong. Jean-Luc Ponty Plays The Music Of Frank Zappa (1970) {Blue Note}6 - America Drinks And Goes Home.wav Pre-gap length 0:00:01.35 Peak level 93.2 %
Extraction speed 3.1 X
Track quality 100.0 %
Test CRC 97320236
Copy CRC 97320236
Accurately ripped (confidence 10) [D1D5973F] (AR v2)
Copy OK

All tracks accurately ripped

No errors occurred

End of status report

==== Log checksum 23556854F223B407B5DDE964C29C7CE68FE7D308BE417B0FC6AB4828CECEE506 ====

http://i64.fastpic.ru/big/2014/1031/c7/7e5538b82c636491736271996eec9ac7.jpg

http://i63.fastpic.ru/big/2014/1031/31/1d123dd22ba6089aaca67892fee2c331.jpg


DOWNLOAD
(Premium Recommended)


All above links are interchangable. No password
Direct Download

Jean-Luc Ponty King Kong Jean-Luc Ponty Plays The Music Of Frank Zappa 1970 {Blue Note} [re-up] Download via Hotfile Rapidshare Fileserve Megaupload & FileSonic, Jean-Luc Ponty King Kong Jean-Luc Ponty Plays The Music Of Frank Zappa 1970 {Blue Note} [re-up] free torrent downloads included crack, serial, keygen.


Add comments

Your Name:
Your E-Mail:

Security Code:
Include security image CAPCHA.
update code
Insert Code: