Sweet Level Headed 1978

Download Now

http://i63.fastpic.ru/big/2014/1201/80/6e281b1ec51ca96272b841c633d97180.jpg

Sweet - Level Headed (1978)
Rock | 1cd | EAC Rip | Flac + Cue + Log | covers
Lemon, CD LEM 59 | rel: 2005 | 320Mb

Sweet struggled to earn credibility as album artists and/or score hits after finally wresting themselves free of songwriting/production team Nicky Chinn and Mike Chapman in the summer of 1974. They turned out a few albums before achieving both goals with Level Headed. The album gave them their final Top Ten hit with the dreamy "Love Is Like Oxygen," a single that suggested that its accompanying record was a trippy mainstream pop record. Instead, it was one part of an ambitious sonic mosaic where Sweet tried a little bit of everything, cloaking it all in a neo-prog aesthetic.

If it was hard to hear the candy crunch of early Sweet on "Love Is Like Oxygen," it seems like "Little Willy" in comparison to the rest of Level Headed, where the group runs wild in the studio. Throughout the first half, they indulge in catchy pop, dressing it up with mild psychedelia, elongating melodies with breezy harmonies and studio swirl. This is just a teaser for the second side, where they delve deep into album rock weirdness, trying on classical-inspired art rock with "Anthem No. 1" and "Anthem No. 2," waltzing along with the Europop "Lettres d'Amour," and livening the proceedings with "Strong Love," a horn-spiked disco tune. Certainly, this is not classic-era Sweet, but that's precisely what's good about Level Headed -- they're off-kilter and adventurous, occasionally stumbling but always making interesting music on an album that's anything but what the title promises. If Level Headed didn't spawn another hit, so be it -- it remains one of Sweet's most fascinating albums, compared to both what came before and after. Yes, it was "Ballroom Blitz," "Fox on the Run," and other early hits that influenced the pop-metal of the late '70s and '80s, but for hardcore Sweet fans, Level Headed is a gem to treasure. ~Allmusic

Track listing
01. Dream On (2:50)
02. Love Is Like Oxygen (6:55)
03. California Nights (3:45)
04. Strong Love (3:29)
05. Fountain (4:46)
06. Anthem No. 1 (Lady Of The Lake) (4:10)
07. Silverbird (3:27)
08. Letters D'Amour (3:30)
09. Anthem No. 2 (1:05)
10. Air On 'A' Tape Loop (5:56)
bonus:
11. Love Is Like Oxygen (Single Version) (3:49)
~ (43:40)

Personnel
- Brian Connolly - lead vocals (except as noted)
- Steve Priest - bass guitar, synthesizer voice, lead vocals (track 1), backing vocals
- Andy Scott - guitar, synthesizer, lead vocals (tracks 3,4), backing vocals
- Mick Tucker - drums, percussion, backing vocals

Exact Audio Copy V1.0 beta 3 from 29. August 2011

EAC extraction logfile from 5. October 2014, 15:43

Sweet / Level Headed

Used drive : PLEXTOR DVDR PX-L890SA Adapter: 2 ID: 1

Read mode : Secure
Utilize accurate stream : Yes
Defeat audio cache : Yes
Make use of C2 pointers : No

Read offset correction : 6
Overread into Lead-In and Lead-Out : No
Fill up missing offset samples with silence : Yes
Delete leading and trailing silent blocks : No
Null samples used in CRC calculations : Yes
Used interface : Native Win32 interface for Win NT & 2000

Used output format : User Defined Encoder
Selected bitrate : 768 kBit/s
Quality : High
Add ID3 tag : No
Command line compressor : G:Program FilesExact Audio CopyFLACFLAC.EXE
Additional command line options : -V -8 -T "Date=%year%" -T "Genre=%genre%" %source%

TOC of the extracted CD Track | Start | Length | Start sector | End sector
---
1 | 0:00.00 | 2:49.66 | 0 | 12740
2 | 2:49.66 | 6:54.62 | 12741 | 43852
3 | 9:44.53 | 3:44.40 | 43853 | 60692
4 | 13:29.18 | 3:28.68 | 60693 | 76360
5 | 16:58.11 | 4:45.50 | 76361 | 97785
6 | 21:43.61 | 4:09.42 | 97786 | 116502
7 | 25:53.28 | 3:27.23 | 116503 | 132050
8 | 29:20.51 | 3:30.12 | 132051 | 147812
9 | 32:50.63 | 1:04.60 | 147813 | 152672
10 | 33:55.48 | 5:55.63 | 152673 | 179360
11 | 39:51.36 | 3:48.47 | 179361 | 196507

Range status and errors

Selected range Filename H:MUSICSweet1978. Sweet - Level Headed (Lemon Rec. CD LEM 59, UK)Sweet - Level Headed.wav Peak level 70.6 %
Extraction speed 5.7 X
Range quality 100.0 %
Test CRC 1F8589F5
Copy CRC 1F8589F5
Copy OK

No errors occurred

AccurateRip summary

Track 1 cannot be verified as accurate (confidence 8) [EC4C49F0], AccurateRip returned [C0F7C145] (AR v2)
Track 2 cannot be verified as accurate (confidence 8) [7E6BC002], AccurateRip returned [06B08A49] (AR v2)
Track 3 cannot be verified as accurate (confidence 8) [CBC117CB], AccurateRip returned [634A1743] (AR v2)
Track 4 cannot be verified as accurate (confidence 8) [2CC6572F], AccurateRip returned [E3BCFA1F] (AR v2)
Track 5 cannot be verified as accurate (confidence 8) [218233EE], AccurateRip returned [45A44890] (AR v2)
Track 6 cannot be verified as accurate (confidence 8) [68C40D98], AccurateRip returned [E11687AC] (AR v2)
Track 7 cannot be verified as accurate (confidence 8) [17B366A2], AccurateRip returned [F3AB6786] (AR v2)
Track 8 cannot be verified as accurate (confidence 8) [35792A5B], AccurateRip returned [37DC6A80] (AR v2)
Track 9 cannot be verified as accurate (confidence 8) [9E538241], AccurateRip returned [4B36E990] (AR v2)
Track 10 cannot be verified as accurate (confidence 8) [66D375DF], AccurateRip returned [63A361D7] (AR v2)
Track 11 cannot be verified as accurate (confidence 8) 3C9BB00, AccurateRip returned [F52D5D05] (AR v2)

No tracks could be verified as accurate
You may have a different pressing from the one(s) in the database

End of status report

==== Log checksum 3036B0F2EB2CD9E391D0F4833AC21DEAEABA6220E0508E5188BDDB1D5C4828AE ====

[CUETools log; Date: 05.10.2014 15:45:22; Version: 2.1.2a]
[CTDB TOCID: fnI17zPIgk0f8sVKPBoimu3dLSQ-] found.
[ CTDBID ] Status
fce9377 (16/16) Accurately ripped
[AccurateRip ID: 00128f57-009f1fda-840a3c0b] found.
Track [ CRC ] Status
01 1a682df (00/25) No match
02 [d17c9e75] (00/25) No match
03 [0cc9b3b5] (00/25) No match
04 [676668a7] (00/25) No match
05 [7c9e89c9] (00/25) No match
06 [adfb50b2] (00/25) No match
07 [a220a4a9] (00/25) No match
08 [54154a72] (00/25) No match
09 [96cce697] (00/25) No match
10 [78341b93] (00/25) No match
11 [11bffe6e] (00/24) No match
Offsetted by -24:
01 [62663b1f] (06/25) Accurately ripped
02 [ef0e293c] (06/25) Accurately ripped
03 [aca470fb] (06/25) Accurately ripped
04 [32c2adca] (06/25) Accurately ripped
05 [867f25b8] (06/25) Accurately ripped
06 [558a4ffb] (06/25) Accurately ripped
07 [e8c0af69] (06/25) Accurately ripped
08 [0fcee382] (06/25) Accurately ripped
09 [203a727a] (06/25) Accurately ripped
10 [0b9e037a] (06/25) Accurately ripped
11 [9f8b78b4] (06/24) Accurately ripped
Offsetted by -6:
01 [c0f7c145] (08/25) Accurately ripped
02 [06b08a49] (08/25) Accurately ripped
03 [634a1743] (08/25) Accurately ripped
04 [e3bcfa1f] (08/25) Accurately ripped
05 [45a44890] (08/25) Accurately ripped
06 [e11687ac] (08/25) Accurately ripped
07 [f3ab6786] (08/25) Accurately ripped
08 [37dc6a80] (08/25) Accurately ripped
09 [4b36e990] (08/25) Accurately ripped
10 [63a361d7] (08/25) Accurately ripped
11 [f52d5d05] (08/24) Accurately ripped

Track Peak [ CRC32 ] [W/O NULL] [ LOG ]
-- 70,6 [1F8589F5] [1A5BFF83] CRC32
01 49,1 [53FF07D9] [EFED5C16]
02 65,2 [9AB665B5] [1904B573]
03 64,1 [F451F8E9] 844B42C
04 64,8 [55026F53] [A67D7E42]
05 63,9 [11FCEA1B] 50DA1F0
06 64,4 [24253127] [7FCA0308]
07 68,0 [C68EDF0F] [7B6CAC0F]
08 70,6 [E3C7814D] [0DE3EBB9]
09 57,4 D72A524 [9A71BA38]
10 69,2 [E832CE6F] [4F10DBF0]
11 51,9 [E00C4645] [576FB627]

Thx to snakesharmer
DOWNLOAD
(Premium Recommended)


All above links are interchangable. No password
Direct Download

Tags: Headed
Artis Indo Sandra Dewi | Foursome Episode Boys | Blue Eyed Butcher Soundtrack | Surgion Sim Demo | Cosplay Erotica Photo Sets | The Croods Sex Edition | Poor Peoples Movements Read Online | Wifi Password Cracker Software With Cracker And Key V Rk Rsyuxfauq | Hvidsten Gruppen p Torrent Rk Rk Rs Rk Rsn | Yumi Kazama Film Serisi | The Recording Revolution Rethink Protools Torrent | Philippine University Sex | Chomikuj Mulcahy | Doc Mcstuffins Dvdrip Rapidshare | How To Create Disney Frozen Movie Font | Alina Ve Antron | Christina Model New Site | Sexi Mather And Boy Asia | Fantastic Fear Of Everything Soundtrack Ddl

Sweet Level Headed 1978 Download via Hotfile Rapidshare Fileserve Megaupload & FileSonic, Sweet Level Headed 1978 free torrent downloads included crack, serial, keygen.


Add comments

Your Name:
Your E-Mail:

Security Code:
Include security image CAPCHA.
update code
Insert Code: