Frankie Miller High Life 1974 [Remastered 2003]

Download Now

http://i68.fastpic.ru/big/2014/1214/09/e2c8cd7aaba11c6b0ba846752b5def09.jpg

Frankie Miller - High Life (1974) [Remastered 2003]
EAC Rip | FLAC: Tracks+Cue+Log | 335 Mb | MP3 CBR 320 kbps | 137 Mb | Scans | Time: 55:08
Genre: Rock, Blue-Eyed Soul, Pub Rock, Blues/Country | Label: Eagle Records | Cat.№: EAMCD151 · GAS 0000151 EAM

"High Life is the second album by Frankie Miller. It was produced by Allen Toussaint, who also composed seven songs on the album. "Play Something Sweet (Brickyard Blues)" was almost immediately covered by Three Dog Night and "Shoo Rah" was covered by Betty Wright -- and both tracks become chart hits."




Track Listing

01. High Life (01:01)
02. Play Something Sweet (Brickyard Blues) (03:37)
03. Trouble (03:32)
04. A Fool (02:51)
05. Little Angel (03:15)
06. With You In Mind (03:21)
07. The Devil Gun (03:37)
08. I'll Take A Melody (04:36)
09. Just A Song (02:50)
10. Shoo-Rah (02:50)
11. I'm Falling In Love Again (04:07)
12. With You In Mind (01:00)

Bonus Tracks
13. Brickyard Blues (Live) (03:15)
14. The Devil Gun (Live) (05:07)
15. If You Need Me (Demo) (05:47)
16. With You In Mind (Demo) (04:15)

Produced by Allen Toussaint

Personnel

* Frankie Miller - vocals, acoustic guitar

RHYTHM
* Allen Toussaint - piano, organ, conga
* Joe Wilson - guitar, slide guitar
* Tom Robb - bass, conga
* Mike Huey - drums
* G.C. Coleman - drums
* Auburn Burrell - dobra guitar
* Barry Bailey - guitar

HORNS
* Lester Caliste - trombone
* Clyde Kerr Jr - trumpet
* Gary Brown - tenor saxophone
* John Longo - trumpet
* Alvin Thomas - baritone saxophone

EAC extraction logfile from 18. March 2008, 11:48 for CD
Frankie Miller / High Life {Rem & Exp 2003}

Used drive : PLEXTOR CD-R PREMIUM Adapter: 1 ID: 1
Read mode : Secure with NO C2, accurate stream, disable cache
Read offset correction : 30
Overread into Lead-In and Lead-Out : Yes

Used output format : C:ProgramExact Audio Copyflac.exe (User Defined Encoder)
320 kBit/s
Additional command line options : -8 -V -T "ARTIST=%a" -T "TITLE=%t" -T "ALBUM=%g" -T "DATE=%y" -T "TRACKNUMBER=%n" -T "GENRE=%m" -T "COMMENT=EAC Flac 1.2.1b -8" %s

Other options :
Fill up missing offset samples with silence : Yes
Delete leading and trailing silent blocks : No
Installed external ASPI interface

Track 1
Filename E:RipFrankie Miller - High Life (1974) [FLAC] {Rem & Exp 2003}1 - High Life.wav Pre-gap length 0:00:02.00 Peak level 94.4 %
Track quality 100.0 %
Test CRC E2C03E7F
Copy CRC E2C03E7F
Copy OK

Track 2
Filename E:RipFrankie Miller - High Life (1974) [FLAC] {Rem & Exp 2003}2 - Play Something Sweet (Brickyard Blues).wav Pre-gap length 0:00:02.57 Peak level 94.4 %
Track quality 100.0 %
Test CRC 126A5D33
Copy CRC 126A5D33
Copy OK

Track 3
Filename E:RipFrankie Miller - High Life (1974) [FLAC] {Rem & Exp 2003}3 - Trouble.wav Pre-gap length 0:00:02.57 Peak level 94.4 %
Track quality 99.9 %
Test CRC BA08A9F7
Copy CRC BA08A9F7
Copy OK

Track 4
Filename E:RipFrankie Miller - High Life (1974) [FLAC] {Rem & Exp 2003}4 - A Fool.wav Pre-gap length 0:00:02.57 Peak level 94.4 %
Track quality 99.9 %
Test CRC A13C36D8
Copy CRC A13C36D8
Copy OK

Track 5
Filename E:RipFrankie Miller - High Life (1974) [FLAC] {Rem & Exp 2003}5 - Little Angel.wav Pre-gap length 0:00:02.57 Peak level 94.1 %
Track quality 100.0 %
Test CRC AC4ADE6F
Copy CRC AC4ADE6F
Copy OK

Track 6
Filename E:RipFrankie Miller - High Life (1974) [FLAC] {Rem & Exp 2003}6 - With You In Mind.wav Pre-gap length 0:00:02.57 Peak level 94.4 %
Track quality 100.0 %
Test CRC F2C6502A
Copy CRC F2C6502A
Copy OK

Track 7
Filename E:RipFrankie Miller - High Life (1974) [FLAC] {Rem & Exp 2003}7 - The Devil Gun.wav Pre-gap length 0:00:02.57 Peak level 94.4 %
Track quality 100.0 %
Test CRC A49CEA6D
Copy CRC A49CEA6D
Copy OK

Track 8
Filename E:RipFrankie Miller - High Life (1974) [FLAC] {Rem & Exp 2003}8 - I'll Take A Melody.wav Pre-gap length 0:00:02.57 Peak level 94.4 %
Track quality 99.9 %
Test CRC 27081FFE
Copy CRC 27081FFE
Copy OK

Track 9
Filename E:RipFrankie Miller - High Life (1974) [FLAC] {Rem & Exp 2003}9 - Just A Song.wav Pre-gap length 0:00:02.57 Peak level 94.4 %
Track quality 100.0 %
Test CRC 6E41A67D
Copy CRC 6E41A67D
Copy OK

Track 10
Filename E:RipFrankie Miller - High Life (1974) [FLAC] {Rem & Exp 2003}10 - Shoo-Rah.wav Pre-gap length 0:00:02.57 Peak level 94.4 %
Track quality 99.9 %
Test CRC 1696F540
Copy CRC 1696F540
Copy OK

Track 11
Filename E:RipFrankie Miller - High Life (1974) [FLAC] {Rem & Exp 2003}11 - I'm Falling In Love Again.wav Pre-gap length 0:00:02.57 Peak level 100.0 %
Track quality 100.0 %
Test CRC 29F403FA
Copy CRC 29F403FA
Copy OK

Track 12
Filename E:RipFrankie Miller - High Life (1974) [FLAC] {Rem & Exp 2003}12 - With You In Mind.wav Pre-gap length 0:00:02.57 Peak level 93.7 %
Track quality 100.0 %
Test CRC 64D74858
Copy CRC 64D74858
Copy OK

Track 13
Filename E:RipFrankie Miller - High Life (1974) [FLAC] {Rem & Exp 2003}13 - Brickyard Blues (Live).wav Pre-gap length 0:00:02.57 Peak level 94.4 %
Track quality 100.0 %
Test CRC 24B9167E
Copy CRC 24B9167E
Copy OK

Track 14
Filename E:RipFrankie Miller - High Life (1974) [FLAC] {Rem & Exp 2003}14 - The Devil Gun (Live).wav Pre-gap length 0:00:02.57 Peak level 94.4 %
Track quality 100.0 %
Test CRC 3A5BD708
Copy CRC 3A5BD708
Copy OK

Track 15
Filename E:RipFrankie Miller - High Life (1974) [FLAC] {Rem & Exp 2003}15 - If You Need Me (Demo).wav Pre-gap length 0:00:02.56 Peak level 94.4 %
Track quality 100.0 %
Test CRC 6B181B8D
Copy CRC 6B181B8D
Copy OK

Track 16
Filename E:RipFrankie Miller - High Life (1974) [FLAC] {Rem & Exp 2003}16 - With You In Mind (Demo).wav Pre-gap length 0:00:02.57 Peak level 100.0 %
Track quality 100.0 %
Test CRC 9F244D79
Copy CRC 9F244D79
Copy OK

No errors occured

End of status report

Many thanks to the original uploader: croca64



|

|

DOWNLOAD
(Premium Recommended)


All above links are interchangable. No password
Direct Download

Tags: Remastered, Miller, Frankie
Reality Show Swing Epsodios | Heart Little Queen | Autocad Portable Torrent Download | Met Art Re Sofi A Video | Download Video Park Nima gp | Fre Petite Sexs Porn | Paul Young Essential | Masha Siberian Mouse Blowjob Torrent | Ugram Movie Video Songs Com | Missing Video From T | Xnxx Mera Pakistna | Kelin Qaynota Sekisi | See Through Preteen Models | Grandvj V Serial | Free Naturist Video Mobile gp Mp | Portrait Professional Keygen For Mac | Ucoz Ru Nudist Family | Brett Rossi Kirsten Price | Installing Sylenth Presets | Pluraleyes For Avid Win Serial

Frankie Miller High Life 1974 [Remastered 2003] Download via Hotfile Rapidshare Fileserve Megaupload & FileSonic, Frankie Miller High Life 1974 [Remastered 2003] free torrent downloads included crack, serial, keygen.


Add comments

Your Name:
Your E-Mail:

Security Code:
Include security image CAPCHA.
update code
Insert Code: