Hawkwind PXR5 1979

Download Now

http://i68.fastpic.ru/big/2014/1214/d3/02040a168c4615de0676a93f379a12d3.jpg

Hawkwind - PXR5 (1979)
Rock | 1cd | EAC Rip | Flac + Cue + Log | covers
Atomhenge ATOMCD 1010 | rem: 2009 | 510Mb

Hawkwind's end-of-the-'70s incarnation heard on PXR5 was the last to feature vocalist/poet Bob Calvert alongside fellow veterans Simon House, Simon King, and, of course, Dave Brock. It is also the last in the sequence of brittle, pop-inflected records the band launched with Astounding Sounds, Amazing Music. But what farewells it contained. The opening "Death Trap," the ruminations of a doomed race car driver, kicks the album off with an explosion of energy and excitement that is positively punkish in its intensity.

More than any of their own contemporaries, Hawkwind both understood and allowed themselves to absorb the energies of new wave, and only a faint unease about the band's supposed hippie leanings prevented them from linking with the Stooges, the New York Dolls, and the Velvet Underground in the pantheon of punky godfathers. The atmospherically drifting "High Rise," too, packs a certain fashionability, dwelling upon the rigors of life atop the towering concrete rabbit hutches that were springing up over the nation's cities, and haunting listeners with one of the most anthemic choruses in the entire Hawkwind canon. But traditional Hawkwind themes are not overlooked. "Uncle Sam's on Mars," while not a patch on the live versions of the day, is a throbbing and deeply spacy return to Space Ritual pastures, and the roughshod "Infinity" could have slipped out of In Seach of Space. Compared with the albums that preceded it, PXR5 is not an all-out classic -- indeed, at the time of release, it drew more attention for a sleeve design that depicted the wrong way of wiring an electrical plug than for the music. But no best-of of the band's late-'70s output would be complete without at least half of PXR5 falling into contention, and "Death Trap" is worth even more than that. ~Allmusic

Track listing
01. Death Trap (3:52)
02. Jack Of Shadows (3:27)
03. Uncle Sam's On Mars (5:43)
04. Infinity (4:18)
05. Life Form (1:44)
06. Robot (8:13)
07. High Rise (4:41)
08. P.X.R.5 (5:17)
09. Jack Of Shadows [Live Studio Version] (3:41)
10. We Like To Be Frightened (2:47)
11. High Rise [Live Studio Version] (4:44)
12. Robot [First Version] (9:27)
13. Jack Of Shadows [Adrian Shaw Vocal Version] (3:55)
14. High Rise [Alternate Vocal Mix] (4:39)
15. P.X.R.5 [Alternate Intro Mix] (5:41)
16. Quark, Strangeness & Charm [Live] (2:39)
~ (74:48)

Personnel
- Robert Calvert - vocals (tracks 1-3,6,7)
- Dave Brock - guitar, keyboards, vocals (tracks 4,8)
- Adrian Shaw - bass guitar (tracks 2,3,6-8)
- Simon House - violin, keyboards (tracks 2,3,6-8)
- Simon King - drums (except 5)

Exact Audio Copy V0.99 prebeta 4 from 23. January 2008

EAC extraction logfile from 28. April 2009, 0:23

Hawkwind / P.X.R.5

Used drive : PIONEER DVD-RW DVR-108 Adapter: 1 ID: 1

Read mode : Secure
Utilize accurate stream : Yes
Defeat audio cache : Yes
Make use of C2 pointers : No

Read offset correction : 48
Overread into Lead-In and Lead-Out : No
Fill up missing offset samples with silence : Yes
Delete leading and trailing silent blocks : No
Null samples used in CRC calculations : Yes
Used interface : Native Win32 interface for Win NT & 2000
Gap handling : Appended to previous track

Used output format : User Defined Encoder
Selected bitrate : 128 kBit/s
Quality : High
Add ID3 tag : No
Command line compressor : C:Program FilesExact Audio CopyFlacflac.exe
Additional command line options : -V -8 -T "artist=%a" -T "title=%t" -T "album=%g" -T "date=%y" -T "tracknumber=%n" -T "genre=%m" %s

TOC of the extracted CD Track | Start | Length | Start sector | End sector
-----------
1 | 0:00.00 | 3:51.69 | 0 | 17393
2 | 3:51.69 | 3:27.28 | 17394 | 32946
3 | 7:19.22 | 5:42.53 | 32947 | 58649
4 | 13:02.00 | 4:18.30 | 58650 | 78029
5 | 17:20.30 | 1:43.38 | 78030 | 85792
6 | 19:03.68 | 8:12.46 | 85793 | 122738
7 | 27:16.39 | 4:41.23 | 122739 | 143836
8 | 31:57.62 | 5:16.71 | 143837 | 167607
9 | 37:14.58 | 3:40.65 | 167608 | 184172
10 | 40:55.48 | 2:47.07 | 184173 | 196704
11 | 43:42.55 | 4:44.17 | 196705 | 218021
12 | 48:26.72 | 9:27.00 | 218022 | 260546
13 | 57:53.72 | 3:54.73 | 260547 | 278169
14 | 61:48.70 | 4:38.66 | 278170 | 299085
15 | 66:27.61 | 5:41.29 | 299086 | 324689
16 | 72:09.15 | 2:39.13 | 324690 | 336627

Track 1 Filename D:FLAC RipsHawkwind - P.X.R.5 (1979) [FLAC] {2009 remaster}1 - Death Trap.wav Pre-gap length 0:00:02.00 Peak level 99.4 %
Track quality 100.0 %
Test CRC E2D6E3DE
Copy CRC E2D6E3DE
Accurately ripped (confidence 1) [DAF5CAEA]
Copy OK

Track 2 Filename D:FLAC RipsHawkwind - P.X.R.5 (1979) [FLAC] {2009 remaster}2 - Jack Of Shadows.wav Pre-gap length 0:00:01.36 Peak level 99.4 %
Track quality 100.0 %
Test CRC B0CDA951
Copy CRC B0CDA951
Accurately ripped (confidence 1) [E2F07309]
Copy OK

Track 3 Filename D:FLAC RipsHawkwind - P.X.R.5 (1979) [FLAC] {2009 remaster}3 - Uncle Sam's On Mars.wav Pre-gap length 0:00:01.16 Peak level 99.4 %
Track quality 100.0 %
Test CRC 909B5632
Copy CRC 909B5632
Accurately ripped (confidence 1) [1FFF03C1]
Copy OK

Track 4 Filename D:FLAC RipsHawkwind - P.X.R.5 (1979) [FLAC] {2009 remaster}4 - Infinity.wav Peak level 99.4 %
Track quality 100.0 %
Test CRC BD98A687
Copy CRC BD98A687
Accurately ripped (confidence 1) [8F68BD3B]
Copy OK

Track 5 Filename D:FLAC RipsHawkwind - P.X.R.5 (1979) [FLAC] {2009 remaster}5 - Life Form.wav Peak level 89.6 %
Track quality 100.0 %
Test CRC 6D5B530B
Copy CRC 6D5B530B
Accurately ripped (confidence 1) [9C59E68C]
Copy OK

Track 6 Filename D:FLAC RipsHawkwind - P.X.R.5 (1979) [FLAC] {2009 remaster}6 - Robot.wav Pre-gap length 0:00:01.61 Peak level 99.4 %
Track quality 100.0 %
Test CRC 56F5FD51
Copy CRC 56F5FD51
Accurately ripped (confidence 1) [502B6946]
Copy OK

Track 7 Filename D:FLAC RipsHawkwind - P.X.R.5 (1979) [FLAC] {2009 remaster}7 - High Rise.wav Peak level 99.4 %
Track quality 100.0 %
Test CRC 996B92E9
Copy CRC 996B92E9
Accurately ripped (confidence 1) 6CFBC17
Copy OK

Track 8 Filename D:FLAC RipsHawkwind - P.X.R.5 (1979) [FLAC] {2009 remaster}8 - P.X.R.5.wav Peak level 99.4 %
Track quality 100.0 %
Test CRC 5E548E0E
Copy CRC 5E548E0E
Accurately ripped (confidence 1) [0A87B85A]
Copy OK

Track 9 Filename D:FLAC RipsHawkwind - P.X.R.5 (1979) [FLAC] {2009 remaster}9 - Jack Of Shadows [Live Studio Version].wav Pre-gap length 0:00:04.54 Peak level 99.4 %
Track quality 100.0 %
Test CRC 35BD34D2
Copy CRC 35BD34D2
Accurately ripped (confidence 1) [E2D11E6E]
Copy OK

Track 10 Filename D:FLAC RipsHawkwind - P.X.R.5 (1979) [FLAC] {2009 remaster}10 - We Like To Be Frightened.wav Pre-gap length 0:00:01.92 Peak level 99.4 %
Track quality 100.0 %
Test CRC 3A9A177D
Copy CRC 3A9A177D
Accurately ripped (confidence 1) [2BDF715E]
Copy OK

Track 11 Filename D:FLAC RipsHawkwind - P.X.R.5 (1979) [FLAC] {2009 remaster}11 - High Rise [Live Studio Version].wav Pre-gap length 0:00:02.10 Peak level 99.4 %
Track quality 99.9 %
Test CRC AA5B338A
Copy CRC AA5B338A
Accurately ripped (confidence 1) [A02A15DF]
Copy OK

Track 12 Filename D:FLAC RipsHawkwind - P.X.R.5 (1979) [FLAC] {2009 remaster}12 - Robot [First Version].wav Pre-gap length 0:00:01.85 Peak level 99.4 %
Track quality 100.0 %
Test CRC 7720BC13
Copy CRC 7720BC13
Accurately ripped (confidence 1) [7C7024F4]
Copy OK

Track 13 Filename D:FLAC RipsHawkwind - P.X.R.5 (1979) [FLAC] {2009 remaster}13 - Jack Of Shadows [Adrian Shaw Vocal Version].wav Pre-gap length 0:00:01.92 Peak level 99.4 %
Track quality 100.0 %
Test CRC 7B75B336
Copy CRC 7B75B336
Accurately ripped (confidence 1) [AEBCBBCE]
Copy OK

Track 14 Filename D:FLAC RipsHawkwind - P.X.R.5 (1979) [FLAC] {2009 remaster}14 - High Rise [Alternate Vocal Mix].wav Pre-gap length 0:00:01.89 Peak level 99.4 %
Track quality 100.0 %
Test CRC FDC52B9A
Copy CRC FDC52B9A
Accurately ripped (confidence 1) [FB4B82DD]
Copy OK

Track 15 Filename D:FLAC RipsHawkwind - P.X.R.5 (1979) [FLAC] {2009 remaster}15 - P.X.R.5 [Alternate Intro Mix].wav Pre-gap length 0:00:02.02 Peak level 99.4 %
Track quality 99.9 %
Test CRC 983FEFC1
Copy CRC 983FEFC1
Accurately ripped (confidence 1) [5A78D337]
Copy OK

Track 16 Filename D:FLAC RipsHawkwind - P.X.R.5 (1979) [FLAC] {2009 remaster}16 - Quark, Strangeness & Charm [Live].wav Pre-gap length 0:00:02.00 Peak level 97.1 %
Track quality 100.0 %
Test CRC 116DC79B
Copy CRC 116DC79B
Accurately ripped (confidence 1) E5C95B3
Copy OK

All tracks accurately ripped

No errors occurred

End of status report

[CUETools log; Date: 2014.12.12. 10:12:24; Version: 2.1.4]
[CTDB TOCID: j.WsV8lpHGtALJbCSnzGMRAHPkg-] found.
Track | CTDB Status
1 | (7/7) Accurately ripped
2 | (7/7) Accurately ripped
3 | (7/7) Accurately ripped
4 | (7/7) Accurately ripped
5 | (7/7) Accurately ripped
6 | (7/7) Accurately ripped
7 | (7/7) Accurately ripped
8 | (7/7) Accurately ripped
9 | (7/7) Accurately ripped
10 | (7/7) Accurately ripped
11 | (7/7) Accurately ripped
12 | (7/7) Accurately ripped
13 | (7/7) Accurately ripped
14 | (7/7) Accurately ripped
15 | (7/7) Accurately ripped
16 | (7/7) Accurately ripped
[AccurateRip ID: 002acd1b-02084e25-e4118810] found.
Track [ CRC | V2 ] Status
01 [daf5caea|4739bad6] (14+16/30) Accurately ripped
02 [e2f07309|3c6aed99] (14+15/29) Accurately ripped
03 [1fff03c1|3cb807ac] (14+15/29) Accurately ripped
04 [8f68bd3b|058386fa] (14+15/29) Accurately ripped
05 [9c59e68c|62c31db8] (14+15/29) Accurately ripped
06 [502b6946|35075e9b] (14+15/29) Accurately ripped
07 6cfbc17|b817dfeb (14+15/29) Accurately ripped
08 [0a87b85a|2c9932e2] (14+15/29) Accurately ripped
09 [e2d11e6e|3ec12457] (14+15/29) Accurately ripped
10 [2bdf715e|9dcac8a5] (14+15/29) Accurately ripped
11 [a02a15df|966998c6] (14+15/29) Accurately ripped
12 [7c7024f4|7e085475] (14+15/29) Accurately ripped
13 [aebcbbce|2d9da741] (14+15/29) Accurately ripped
14 [fb4b82dd|3c33a9a3] (14+15/29) Accurately ripped
15 [5a78d337|737cdb02] (14+15/29) Accurately ripped
16 e5c95b3|be866874 (14+15/29) Accurately ripped

Track Peak [ CRC32 ] [W/O NULL] [ LOG ]
-- 99,4 [11E1DE66] [F902F3A3]
01 99,4 [E2D6E3DE] [DECCCC0E] CRC32
02 99,4 0CDA951 [0D67B589] CRC32
03 99,4 [909B5632] [A55BC179] CRC32
04 99,4 D98A687 [E7C4AB4A] CRC32
05 89,6 [6D5B530B] 80F6E94 CRC32
06 99,4 [56F5FD51] [86D7AC5B] CRC32
07 99,4 [996B92E9] [9EAF228B] CRC32
08 99,4 [5E548E0E] [592C3661] CRC32
09 99,4 [35BD34D2] [CF64EFEC] CRC32
10 99,4 [3A9A177D] [7F9E2F65] CRC32
11 99,4 [AA5B338A] [DE83851E] CRC32
12 99,4 [7720BC13] [460EA709] CRC32
13 99,4 [7B75B336] [119ECCD0] CRC32
14 99,4 [FDC52B9A] [8C1ABED2] CRC32
15 99,4 [983FEFC1] [89A697EE] CRC32
16 97,0 [116DC79B] [59C83116] CRC32

Thx to rat24
DOWNLOAD
(Premium Recommended)

Uploaded.net:
qny8z.H.rar

Rapidgator.net:
qny8z.H.rar.html

Turbobit.net:
qny8z.H.rar.html

All above links are interchangable. No password
Direct Download

Tags: Hawkwind
Blonds And Blacks Free Passwords | Download Os X Mountain Lion Dmg | Dragon Ball Z B Attle Of Gods Jap Dub Dvdrip Xvid | Get The Password For Fifa Street Reloaded | Larkin Love Cat | Sanny Leion Nangi Pics | Space Girl Interrupted | Journals Of The Unknown Labrinth Code | Michael Buble Nbc Christmas Special Torrent | Naked Girls In Hungover Games | Tis On Windows | Forza Horizon Save Game Editor | Sexlab Defeat Torrent | Sex Porn Animal Vs Boy | Your Erroneous Zones Mobi | Magazine Cover Templates Free Torrent | Cubase Mac Os X The Pirate Bay Torrent Download Rk Rsxuyoj uecygpu | d Full Sex Stories | Photographers Guide To Nude Model Posing Rapidshare

Hawkwind PXR5 1979 Download via Hotfile Rapidshare Fileserve Megaupload & FileSonic, Hawkwind PXR5 1979 free torrent downloads included crack, serial, keygen.


Add comments

Your Name:
Your E-Mail:

Security Code:
Include security image CAPCHA.
update code
Insert Code: