Jonne Korpiklaani Jonne 2014

Download Now

http://i64.fastpic.ru/big/2014/1220/e4/a30cccbcdb6693aaa4fdbbe1fb6640e4.jpg

Jonne (Korpiklaani) - Jonne (2014)
EAC Rip | FLAC (tracks & cue & log) | 326 MB | MP3 CBR 320 kbps | 88 MB | tracks: 9 | Scans | time: 40:57
Genre: Folk Metal /Acoustic Folk Rock | Country: Finland | Label: Playground Music Oy | Cat.? PMF123

"Jonne Järvelä (born June 3, 1974) is the vocalist/guitarist of the Finnish band Korpiklaani.He is known in the Verga folk metal scene for his yoiking and contributed the yoik on the Finntroll album, Jaktens Tid. He was once a member of the Sami music group Angelin tytöt.In 2011 he appeared in the song "Humppa Is My Neighbour" by the Russian band Troll Bends Fir and in the song "Leszek a Hold" by the Hungarian band Dalriada, in 2012 he played on the Varg Song "A Thousand Eyes" of the Guten Tag album."

http://i64.fastpic.ru/big/2014/1220/b9/51da788c3564150aa2f4f1cee5d208b9.jpg


Tracklist:

01. Viuluni Laulua Soutaa 03:37
02. Ken Soi Lapsen Lattialta? 03:29
03. Ammankuolema 04:36
04. Kuku Kaki 04:48
05. Metsaan On Iaksi Mieli 04:06
06. Tule Hiidesta Hevonen 06:56
07. Leppayon Loyly 04:49
08. Joki 03:30
Bonus Track:
09. The Boxer (Simon And Garfunkle Cover) 05:03

Exact Audio Copy V1.0 beta 3 from 29. August 2011

EAC extraction logfile from 12. December 2014, 14:38

Jonne / Jonne

Used drive : HP DVD Writer 1170d Adapter: 0 ID: 0

Read mode : Secure
Utilize accurate stream : Yes
Defeat audio cache : Yes
Make use of C2 pointers : No

Read offset correction : 6
Overread into Lead-In and Lead-Out : No
Fill up missing offset samples with silence : Yes
Delete leading and trailing silent blocks : No
Null samples used in CRC calculations : Yes
Used interface : Native Win32 interface for Win NT & 2000

Used output format : User Defined Encoder
Selected bitrate : 768 kBit/s
Quality : High
Add ID3 tag : No
Command line compressor : C:Program Files (x86)Exact Audio CopyFLACFLAC.EXE
Additional command line options : -V -8 -T "Date=%year%" -T "Genre=%genre%" -T"COMMENT=Ripped by Ungern666" -8 -V %source%

TOC of the extracted CD Track | Start | Length | Start sector | End sector
-----------
1 | 0:00.00 | 3:37.54 | 0 | 16328
2 | 3:37.54 | 3:29.07 | 16329 | 32010
3 | 7:06.61 | 4:36.21 | 32011 | 52731
4 | 11:43.07 | 4:48.37 | 52732 | 74368
5 | 16:31.44 | 4:06.07 | 74369 | 92825
6 | 20:37.51 | 6:56.26 | 92826 | 124051
7 | 27:34.02 | 4:49.64 | 124052 | 145790
8 | 32:23.66 | 3:30.29 | 145791 | 161569
9 | 35:54.20 | 5:02.74 | 161570 | 184293

Range status and errors

Selected range Filename C:EACUngern666Jonne - Jonne.wav Peak level 100.0 %
Extraction speed 5.4 X
Range quality 100.0 %
Test CRC 958B9BD1
Copy CRC 958B9BD1
Copy OK

No errors occurred

AccurateRip summary

Track 1 accurately ripped (confidence 1) [CFD1813C] (AR v2)
Track 2 accurately ripped (confidence 1) [4AAAB8E8] (AR v2)
Track 3 accurately ripped (confidence 1) [E8FEAFF4] (AR v2)
Track 4 accurately ripped (confidence 1) [236CCB7B] (AR v2)
Track 5 accurately ripped (confidence 1) [2DD8C8D5] (AR v2)
Track 6 accurately ripped (confidence 1) [A948AC37] (AR v2)
Track 7 accurately ripped (confidence 1) [CC7F4E9C] (AR v2)
Track 8 accurately ripped (confidence 1) [F09D1CFD] (AR v2)
Track 9 accurately ripped (confidence 1) [65185416] (AR v2)

All tracks accurately ripped

End of status report

==== Log checksum 97972710F018BD157C8F80DB9AC89865949D9E73356B5965DB140466411F1929 ====

All thanks to Ungern666

http://i64.fastpic.ru/big/2014/1220/e8/610f4b6f6c6b170c72ccf7e7cb2abbe8.jpg


Link Download


Buy Premium To Support Me & Download with MaX SPeeD!


Uploadable.ch
http://www.uploadable.ch/file/n3aHWeBEB3Qj/v7gjd.Jonnlossless2014.rar

http://www.uploadable.ch/file/sqzENnkE5ABp/v7gjd.Jonnmp32014.rar


Rapidgator.net
http://rapidgator.net/file/25752230f032bf4a120f84d0c9188b55/v7gjd.Jonnlossless2014.rar.html

http://rapidgator.net/file/fac19cb9b5128d10ae16c1e0b3acae3d/v7gjd.Jonnmp32014.rar.html


Uploaded.net
http://uploaded.net/file/nkuekcv8/v7gjd.Jonnlossless2014.rar

http://uploaded.net/file/m2h9e7zv/v7gjd.Jonnmp32014.rar


Turbobit.net
http://turbobit.net/mmifp20acrzo/v7gjd.Jonnlossless2014.rar.html

http://turbobit.net/gntafiucqbag/v7gjd.Jonnmp32014.rar.html


Direct Download

Tags: Korpiklaani
Free Tekuho Shota Gallery | Synthmaster Pc Torrent | Lady Tori Rar File Password | Macrabit Slicy Serial | Brazzers Dvd gp Full Movie | Imgchilli Nude Girls | Hostcloud Premium Wordpress Theme | After Effects P Rojects Big Pac K No Rar | Videos Los Zetas Cortando Cabezas | Crazy Clown Time Deluxe Edition Rapidshare Download | Reallifecam Porn Danaya Fingering | Children Nudisme Photoshop | Hindi Sex Porn Page Badmasti | Alwil Avast With Key High Compressed Rar | En Guzel Bornolar | New Kannada Sex Story | Cleaning Uniforms | Teenfuns Photo Years | Powershell Tool Making In A Month Of Lunches Torrent

Jonne Korpiklaani Jonne 2014 Download via Hotfile Rapidshare Fileserve Megaupload & FileSonic, Jonne Korpiklaani Jonne 2014 free torrent downloads included crack, serial, keygen.


Add comments

Your Name:
Your E-Mail:

Security Code:
Include security image CAPCHA.
update code
Insert Code: