Bryan Adams Anthology 2005 [Japanese Edition]

Download Now

http://i68.fastpic.ru/big/2015/0106/ef/fa85d4d2d43b8435ac2624f67c0bd7ef.jpg

Bryan Adams - Anthology (2005) [Japanese Edition]
EAC Rip | 2CDs | FLAC Image + Cue + Log - 1.12 GB | MP3 CBR @320 kbps - 377 MB | Full scans - 152 MB
Label: Universal Music K.K. Japan | Catalog.#: UICP-1065/6 | Genre: Pop Rock

"This compilation of music by one of Canada's most important singers is presented in approximate chronological order, beginning in 1980 with Remember. The first Bryan Adams song that I became familiar with is Straight from the heart, which became his first top ten hit in America. It wasn't a hit for him in Britain but Bonnie Tyler covered it for her album, Faster than the speed of night. A hugely successful album that spawned a British and American number one hit, Total eclipse of the heart, it surely can't have harmed Bryan's career to have a cover of one of his songs on such a successful album, even though his name among the credits may not have meant anything to many Brits who bought the album at the time. "

CD1

01. Remember - 03:43
02. Lonely Nights - 03:49
03. Straight From The Heart - 03:33
04. Cuts Like A Knife - 05:18
05. This Time - 03:22
06. Run To You - 03:55
07. Somebody - 04:45
08. Heaven - 04:06
09. Summer Of '69 - 03:38
10. One Night Love Affair - 04:35
11. It's Only Love (with Tina Turner) - 03:17
12. Heat Of The Night - 05:09
13. Hearts On Fire - 03:32
14. (Everything I Do) I Do It For You - 06:36
15. Can't Stop This Thing We Started - 04:31
16. There Will Never Be Another Tonight - 04:42
17. Thought I'd Died And Gone To Heaven - 05:50
18. All I Want Is You - 05:21

Exact Audio Copy V1.0 beta 3 from 29. August 2011

EAC extraction logfile from 19. October 2014, 22:00

Bryan Adams / Anthology CD1

Used drive : SlimtypeDVD A DS8A5SH Adapter: 0 ID: 1

Read mode : Secure
Utilize accurate stream : Yes
Defeat audio cache : Yes
Make use of C2 pointers : No

Read offset correction : 6
Overread into Lead-In and Lead-Out : No
Fill up missing offset samples with silence : Yes
Delete leading and trailing silent blocks : No
Null samples used in CRC calculations : Yes
Used interface : Native Win32 interface for Win NT & 2000

Used output format : User Defined Encoder
Selected bitrate : 320 kBit/s
Quality : High
Add ID3 tag : No
Command line compressor : C:Program Files (x86)Exact Audio CopyFlacflac.exe
Additional command line options : -V -8 -T "Date=%year%" -T "Genre=%genre%" %source%

TOC of the extracted CD Track | Start | Length | Start sector | End sector
-----------
1 | 0:00.00 | 3:42.52 | 0 | 16701
2 | 3:42.52 | 3:48.55 | 16702 | 33856
3 | 7:31.32 | 3:32.55 | 33857 | 49811
4 | 11:04.12 | 5:17.54 | 49812 | 73640
5 | 16:21.66 | 3:21.50 | 73641 | 88765
6 | 19:43.41 | 3:55.09 | 88766 | 106399
7 | 23:38.50 | 4:44.35 | 106400 | 127734
8 | 28:23.10 | 4:05.70 | 127735 | 146179
9 | 32:29.05 | 3:37.30 | 146180 | 162484
10 | 36:06.35 | 4:34.51 | 162485 | 183085
11 | 40:41.11 | 3:16.74 | 183086 | 197859
12 | 43:58.10 | 5:08.54 | 197860 | 221013
13 | 49:06.64 | 3:31.36 | 221014 | 236874
14 | 52:38.25 | 6:35.47 | 236875 | 266546
15 | 59:13.72 | 4:30.22 | 266547 | 286818
16 | 63:44.19 | 4:41.50 | 286819 | 307943
17 | 68:25.69 | 5:50.03 | 307944 | 334196
18 | 74:15.72 | 5:20.37 | 334197 | 358233

Range status and errors

Selected range Filename D:My MusicBryan Adams - 2005 AnthologyCD1Bryan Adams - Anthology CD1.wav Peak level 100.0 %
Extraction speed 2.2 X
Range quality 99.9 %
Test CRC C1EE5BA7
Copy CRC C1EE5BA7
Copy OK

No errors occurred

AccurateRip summary

Track 1 accurately ripped (confidence 103) [3B692104] (AR v2)
Track 2 accurately ripped (confidence 106) [55DB85BD] (AR v2)
Track 3 accurately ripped (confidence 106) 11899E8 (AR v2)
Track 4 accurately ripped (confidence 108) [A285A5DA] (AR v2)
Track 5 accurately ripped (confidence 107) [8524F62C] (AR v2)
Track 6 accurately ripped (confidence 109) [6C32E75B] (AR v2)
Track 7 accurately ripped (confidence 108) [355470EE] (AR v2)
Track 8 accurately ripped (confidence 106) [F3C47356] (AR v2)
Track 9 accurately ripped (confidence 108) [849FCF4E] (AR v2)
Track 10 accurately ripped (confidence 106) [E63EE8F8] (AR v2)
Track 11 accurately ripped (confidence 109) [8B8699FD] (AR v2)
Track 12 accurately ripped (confidence 106) [52E6D23D] (AR v2)
Track 13 accurately ripped (confidence 103) [487B81B2] (AR v2)
Track 14 accurately ripped (confidence 104) [EB80C1F4] (AR v2)
Track 15 accurately ripped (confidence 104) [F95AF7D0] (AR v2)
Track 16 accurately ripped (confidence 107) [F4C204B7] (AR v2)
Track 17 cannot be verified as accurate (confidence 105) [A0DB773B], AccurateRip returned [03F4D23F] (AR v2)
Track 18 accurately ripped (confidence 103) [56DA7030] (AR v2)

17 Ñ?#209;?#208;µÐº(и) Ñ?копиÑ?#208;¾Ð²Ð°Ð½Ñ?Ñ?#208;¾Ñ?#208;½Ð¾
1 Ñ?#209;?#208;µÐº(и) не Ñ?далоÑ?Ñ? пÑ?#208;¾Ð²ÐµÑ?#208;¸Ñ?#209;? на Ñ?#208;¾Ñ?#208;½Ð¾Ñ?Ñ?#209;?

Some tracks could not be verified as accurate

End of status report

==== Log checksum 39B61364B9FBF3D16563EE2893201DE9ED159934932AF54DBA496EAB948E1647 ====

[CUETools log; Date: 12/30/2014 5:20:44 PM; Version: 2.1.4]
[CTDB TOCID: .BCXFvkEN1Ug1xnQYl65ShG4RG8-] found.
Track | CTDB Status
1 | (134/135) Accurately ripped
2 | (134/135) Accurately ripped
3 | (134/135) Accurately ripped
4 | (135/135) Accurately ripped
5 | (134/135) Accurately ripped
6 | (135/135) Accurately ripped
7 | (135/135) Accurately ripped
8 | (134/135) Accurately ripped
9 | (134/135) Accurately ripped
10 | (135/135) Accurately ripped
11 | (135/135) Accurately ripped
12 | (132/135) Accurately ripped
13 | (135/135) Accurately ripped
14 | (134/135) Accurately ripped
15 | (133/135) Accurately ripped
16 | (130/135) Accurately ripped
17 | (123/135) Differs in 40 samples @03:37:20
18 | (130/135) Accurately ripped
[AccurateRip ID: 0030ccca-0292a23e-0012a812] found.
Track [ CRC | V2 ] Status
01 [ffbc58c6|3b692104] (108+110/292) Accurately ripped
02 [c4752046|55db85bd] (106+113/292) Accurately ripped
03 [96a91a98|b11899e8] (108+113/295) Accurately ripped
04 [a5d12815|a285a5da] (106+115/295) Accurately ripped
05 [30d235ab|8524f62c] (106+114/294) Accurately ripped
06 [9d6ca6f7|6c32e75b] (111+116/301) Accurately ripped
07 [0c128b6c|355470ee] (107+115/292) Accurately ripped
08 [0b4d3149|f3c47356] (109+113/296) Accurately ripped
09 41b9b33|849fcf4e (105+115/297) Accurately ripped
10 8e9d99f|e63ee8f8 (108+113/295) Accurately ripped
11 [8c34cb2b|8b8699fd] (109+116/299) Accurately ripped
12 [607ca863|52e6d23d] (105+113/290) Accurately ripped
13 [85e20427|487b81b2] (103+110/287) Accurately ripped
14 [ed1f2e4f|eb80c1f4] (109+111/289) Accurately ripped
15 [fab12b4c|f95af7d0] (107+111/286) Accurately ripped
16 [51fd91ed|f4c204b7] (103+114/286) Accurately ripped
17 [56de716f|a0db773b] (000+000/283) No match
18 [24fcc194|56da7030] (102+110/272) Accurately ripped
Offsetted by -712:
01 [6cc44b0f] (002/292) Accurately ripped
02 [4ec092cf] (002/292) Accurately ripped
03 [c09245de] (002/295) Accurately ripped
04 428f815 (002/295) Accurately ripped
05 [eafdb724] (002/294) Accurately ripped
06 [39143ffc] (002/301) Accurately ripped
07 [d2fcdc7f] (000/292) No match (V2 was not tested)
08 [512d63e2] (002/296) Accurately ripped
09 8321538 (002/297) Accurately ripped
10 [006ef00f] (002/295) Accurately ripped
11 [3aeec254] (002/299) Accurately ripped
12 [641bf5ab] (002/290) Accurately ripped
13 [55783520] (002/287) Accurately ripped
14 [dc863d18] (002/289) Accurately ripped
15 [e6239e75] (002/286) Accurately ripped
16 [7b3f3541] (000/286) No match (V2 was not tested)
17 [726bb8f3] (000/283) No match (V2 was not tested)
18 [6dc10074] (000/272) No match (V2 was not tested)
Offsetted by -664:
01 [d95e290a] (008/292) Accurately ripped
02 [4a7ed58b] (007/292) Accurately ripped
03 [66a01c48] (007/295) Accurately ripped
04 [4671f558] (007/295) Accurately ripped
05 [757785ab] (007/294) Accurately ripped
06 [451297f6] (007/301) Accurately ripped
07 [098cda8b] (006/292) Accurately ripped
08 [1f27eba5] (007/296) Accurately ripped
09 [2cc6628c] (006/297) Accurately ripped
10 [6353dfec] (007/295) Accurately ripped
11 b0ee1c1 (006/299) Accurately ripped
12 [1ec01bf6] (006/290) Accurately ripped
13 [edfe03da] (007/287) Accurately ripped
14 [dfa9559b] (007/289) Accurately ripped
15 [fa51f5a6] (007/286) Accurately ripped
16 [0b650cfc] (007/286) Accurately ripped
17 [0557adf8] (000/283) No match (V2 was not tested)
18 [0b03c46d] (006/272) Accurately ripped
Offsetted by -658:
01 [8798b7e6] (002/292) Accurately ripped
02 [c19b4080] (002/292) Accurately ripped
03 [5b0eb114] (002/295) Accurately ripped
04 [6583680b] (002/295) Accurately ripped
05 [09119f7b] (002/294) Accurately ripped
06 [4712b326] (002/301) Accurately ripped
07 [663f5a4d] (003/292) Accurately ripped
08 [2b5a6c5e] (002/296) Accurately ripped
09 8e042e1 (003/297) Accurately ripped
10 [33c347fd] (002/295) Accurately ripped
11 [dfcbb7aa] (003/299) Accurately ripped
12 [fc7302e5] (002/290) Accurately ripped
13 c6feee3 (002/287) Accurately ripped
14 [04be58aa] (002/289) Accurately ripped
15 [304f4089] (002/286) Accurately ripped
16 [f0bcfe7a] (002/286) Accurately ripped
17 [605aac99] (000/283) No match (V2 was not tested)
18 [186cc917] (002/272) Accurately ripped
Offsetted by -646:
01 [c9d6f816] (020/292) Accurately ripped
02 [859d1663] (021/292) Accurately ripped
03 [a7b066c4] (021/295) Accurately ripped
04 [0c0119a7] (022/295) Accurately ripped
05 [4cf4d31c] (022/294) Accurately ripped
06 [818eb267] (022/301) Accurately ripped
07 [6270ee09] (020/292) Accurately ripped
08 [431aeff3] (021/296) Accurately ripped
09 0b50388 (022/297) Accurately ripped
10 [588099e7] (021/295) Accurately ripped
11 [0e507f90] (021/299) Accurately ripped
12 a340a46 (022/290) Accurately ripped
13 abf277d (022/287) Accurately ripped
14 [da07b424] (017/289) Accurately ripped
15 [d7c6d64e] (020/286) Accurately ripped
16 [e39d7df7] (020/286) Accurately ripped
17 [a249a9d0] (000/283) No match (V2 was not tested)
18 [31939577] (017/272) Accurately ripped
Offsetted by -80:
01 [986afb72] (002/292) Accurately ripped
02 [97a6f565] (002/292) Accurately ripped
03 [6d9a5edd] (002/295) Accurately ripped
04 299dc66 (002/295) Accurately ripped
05 [5034da5b] (002/294) Accurately ripped
06 [ca7fe196] (002/301) Accurately ripped
07 [02ea205f] (002/292) Accurately ripped
08 [7deba6d9] (002/296) Accurately ripped
09 [1155e23a] (002/297) Accurately ripped
10 [f106c9f4] (002/295) Accurately ripped
11 [699dea98] (002/299) Accurately ripped
12 [6014696e] (002/290) Accurately ripped
13 [8e23e5be] (002/287) Accurately ripped
14 [3095a626] (002/289) Accurately ripped
15 [d05046d9] (002/286) Accurately ripped
16 [4db8b160] (002/286) Accurately ripped
17 [c8f29c7e] (000/283) No match (V2 was not tested)
18 69bc1d6 (002/272) Accurately ripped
Offsetted by -36:
01 [1a5b95f2] (006/292) Accurately ripped
02 [78328809] (006/292) Accurately ripped
03 [edc25f76] (006/295) Accurately ripped
04 8547944 (006/295) Accurately ripped
05 [7fcfe517] (006/294) Accurately ripped
06 [ccf886c4] (006/301) Accurately ripped
07 [6497200f] (006/292) Accurately ripped
08 [cb512d70] (006/296) Accurately ripped
09 [ebf7eebe] (006/297) Accurately ripped
10 [53413b5f] (006/295) Accurately ripped
11 [e47d0106] (006/299) Accurately ripped
12 [6cde0e2d] (006/290) Accurately ripped
13 [9e50a8b4] (006/287) Accurately ripped
14 [8972a9d7] (006/289) Accurately ripped
15 [4f882f6e] (006/286) Accurately ripped
16 [51e7af13] (006/286) Accurately ripped
17 [080a91be] (000/283) No match (V2 was not tested)
18 [d1edddd2] (006/272) Accurately ripped
Offsetted by -30:
01 [8bcb24ae] (002/292) Accurately ripped
02 [eee00859] (002/292) Accurately ripped
03 [e2a51ad2] (002/295) Accurately ripped
04 [0b10ebbd] (002/295) Accurately ripped
05 [c7e4ff24] (002/294) Accurately ripped
06 [ce4e6aa2] (002/301) Accurately ripped
07 [05b10bd4] (002/292) Accurately ripped
08 [5535ae13] (002/296) Accurately ripped
09 [0d8acefc] (002/297) Accurately ripped
10 [f9f57968] (002/295) Accurately ripped
11 [ecc148fd] (002/299) Accurately ripped
12 [4b0bb2e8] (002/290) Accurately ripped
13 [1dae4511] (002/287) Accurately ripped
14 [3a523b32] (002/289) Accurately ripped
15 [c0e097e3] (000/286) No match (V2 was not tested)
16 [389fb3bb] (002/286) Accurately ripped
17 [6201046d] (000/283) No match (V2 was not tested)
18 [a2fde345] (000/272) No match (V2 was not tested)
Offsetted by -12:
01 [c8ca49f5] (006/292) Accurately ripped
02 [ebb334ce] (005/292) Accurately ripped
03 [22f13e6b] (005/295) Accurately ripped
04 [35070f69] (005/295) Accurately ripped
05 [09a0b5c3] (005/294) Accurately ripped
06 [d2681647] (005/301) Accurately ripped
07 [7ac88b9b] (005/292) Accurately ripped
08 [797a3000] (005/296) Accurately ripped
09 [71a02533] (005/297) Accurately ripped
10 [c3eb337e] (005/295) Accurately ripped
11 [5d6b031d] (005/299) Accurately ripped
12 [26f6e342] (005/290) Accurately ripped
13 [87d81a26] (005/287) Accurately ripped
14 [face99de] (005/289) Accurately ripped
15 [167695d0] (005/286) Accurately ripped
16 [fd6e2528] (005/286) Accurately ripped
17 [8880e86a] (000/283) No match (V2 was not tested)
18 [cbaeb6a0] (005/272) Accurately ripped
Offsetted by 6:
01 [a22df2fc] (000/292) No match
02 [117c8b74] (000/292) No match
03 [3d3d88b2] (000/295) No match
04 [5edc3301] (000/295) No match
05 [78ea4fba] (000/294) No match
06 [671353c4] (000/301) No match
07 [ac610b54] (000/292) No match
08 [95e52fc6] (000/296) No match
09 [d5a47b7d] (002/297) Accurately ripped
10 [5faf17a6] (002/295) Accurately ripped
11 1972f32 (000/299) No match
12 [3dbf8f42] (000/290) No match
13 [67bda088] (000/287) No match
14 [d80ff884] (000/289) No match
15 [31fc584a] (000/286) No match
16 [c1600d0e] (000/286) No match
17 [3d997003] (000/283) No match
18 [d19ec70f] (000/272) No match
Offsetted by 141:
01 [1dabf984] (000/292) No match (V2 was not tested)
02 [86474c25] (000/292) No match (V2 was not tested)
03 [49665d59] (000/295) No match (V2 was not tested)
04 [afca294c] (000/295) No match (V2 was not tested)
05 [faa8b298] (000/294) No match (V2 was not tested)
06 [134eecb8] (000/301) No match (V2 was not tested)
07 [723ac8c5] (000/292) No match (V2 was not tested)
08 [4c07fdeb] (000/296) No match (V2 was not tested)
09 [ef1ae804] (000/297) No match (V2 was not tested)
10 [5e3d609e] (000/295) No match (V2 was not tested)
11 [ab186c41] (000/299) No match (V2 was not tested)
12 [84facbd3] (000/290) No match (V2 was not tested)
13 56e7b5e (000/287) No match (V2 was not tested)
14 [fe70bec4] (000/289) No match (V2 was not tested)
15 910cb7c (000/286) No match (V2 was not tested)
16 [6ef75740] (000/286) No match (V2 was not tested)
17 [91425b21] (000/283) No match (V2 was not tested)
18 [74393a50] (000/272) No match (V2 was not tested)
Offsetted by 535:
01 [618870a8] (000/292) No match (V2 was not tested)
02 [0cde721f] (000/292) No match (V2 was not tested)
03 [9a91c9af] (000/295) No match (V2 was not tested)
04 2d80201 (000/295) No match (V2 was not tested)
05 [84f1ff8d] (000/294) No match (V2 was not tested)
06 [9945e5f2] (000/301) No match (V2 was not tested)
07 [21561a15] (000/292) No match (V2 was not tested)
08 [75d12a32] (000/296) No match (V2 was not tested)
09 [f8c46302] (000/297) No match (V2 was not tested)
10 [3f98c7f3] (000/295) No match (V2 was not tested)
11 [425ca950] (000/299) No match (V2 was not tested)
12 [ced06bb3] (000/290) No match (V2 was not tested)
13 [3adfe2c6] (000/287) No match (V2 was not tested)
14 [f74315e2] (000/289) No match (V2 was not tested)
15 [10efb58e] (000/286) No match (V2 was not tested)
16 [7f308f1f] (000/286) No match (V2 was not tested)
17 [6af1873d] (000/283) No match (V2 was not tested)
18 [e4fa342c] (000/272) No match (V2 was not tested)

Track Peak [ CRC32 ] [W/O NULL] [ LOG ]
-- 100.0 [C1EE5BA7] [05959D86] CRC32
01 100.0 [F1F858A0] [C5166CEC]
02 100.0 [6872A934] [82A10D00]
03 100.0 [7046CFB8] [6BC9B2F0]
04 100.0 [FFB2ED85] [0FE64E76]
05 100.0 [3854E369] [09469099]
06 100.0 [FE6BFED6] [56F4F4CB]
07 100.0 [090980B3] [ADE7BD9E]
08 100.0 [5D40EB71] 6EBB86A
09 100.0 [10A3CBD8] [2FC94F13]
10 100.0 [F79857C7] [A9974046]
11 100.0 [6A98B370] [6BA976D6]
12 100.0 [D41B74EB] [12A95943]
13 100.0 [1F964EBF] [4775BF90]
14 100.0 [7991164B] [90068941]
15 100.0 [1089055D] AAB64D2
16 100.0 [89300DC8] [54AFC5F7]
17 100.0 [7019845F] [ACCB05C0]
18 100.0 [AED9D8E3] [59E26E4B]

CD2

01. Please Forgive Me (single 1993, non-album track) - 5:55
02. All For Love (with Sting & Rod Stewart) (single 1993, non-album track) 4:43
03. Have You Ever Really Loved A Woman? - 4:53
04. Rock Steady (live duet with Bonnie Raitt) (single 1995, non-album track) - 4:06
05. The Only Thing That Looks Good On Me Is You - 3:39
06. Let's Make A Night to Remember - 6:20
07. Star - 3:42
08. Back To You (Live) - 4:41
09. I'm Ready (Live) - 4:29
10. On A Day Like Today - 3:29
11. When You're Gone (duet with Melanie C) - 3:25
12. Cloud Number Nine (Chicane Mix) - 4:11
13. The Best Of Me (single 1999, non-album track) - 3:31
14. Don't Give Up (with Chicane) (single 2000, non-album track) - bonus track for Japan - 3:42
15. Here I Am - 4:46
16. Open Road - 3:30
17. 18 Til I Die (Live) - 4:05
18. So Far So Good (1993 session, non-album track) - 3:41
19. I'm Not The Man You Think I Am ("Colour Me Kubrick" soundtrack 2005, non-album track) - 3:03

Exact Audio Copy V1.0 beta 3 from 29. August 2011

EAC extraction logfile from 19. October 2014, 22:56

Bryan Adams / Anthology CD2

Used drive : SlimtypeDVD A DS8A5SH Adapter: 0 ID: 1

Read mode : Secure
Utilize accurate stream : Yes
Defeat audio cache : Yes
Make use of C2 pointers : No

Read offset correction : 6
Overread into Lead-In and Lead-Out : No
Fill up missing offset samples with silence : Yes
Delete leading and trailing silent blocks : No
Null samples used in CRC calculations : Yes
Used interface : Native Win32 interface for Win NT & 2000

Used output format : User Defined Encoder
Selected bitrate : 320 kBit/s
Quality : High
Add ID3 tag : No
Command line compressor : C:Program Files (x86)Exact Audio CopyFlacflac.exe
Additional command line options : -V -8 -T "Date=%year%" -T "Genre=%genre%" %source%

TOC of the extracted CD Track | Start | Length | Start sector | End sector
-----------
1 | 0:00.00 | 5:55.53 | 0 | 26677
2 | 5:55.53 | 4:43.40 | 26678 | 47942
3 | 10:39.18 | 4:53.14 | 47943 | 69931
4 | 15:32.32 | 4:06.05 | 69932 | 88386
5 | 19:38.37 | 3:39.33 | 88387 | 104844
6 | 23:17.70 | 6:20.26 | 104845 | 133370
7 | 29:38.21 | 3:42.23 | 133371 | 150043
8 | 33:20.44 | 4:41.61 | 150044 | 171179
9 | 38:02.30 | 4:29.39 | 171180 | 191393
10 | 42:31.69 | 3:29.73 | 191394 | 207141
11 | 46:01.67 | 3:25.05 | 207142 | 222521
12 | 49:26.72 | 4:11.58 | 222522 | 241404
13 | 53:38.55 | 3:31.57 | 241405 | 257286
14 | 57:10.37 | 3:42.13 | 257287 | 273949
15 | 60:52.50 | 4:46.02 | 273950 | 295401
16 | 65:38.52 | 3:30.40 | 295402 | 311191
17 | 69:09.17 | 4:05.63 | 311192 | 329629
18 | 73:15.05 | 3:41.05 | 329630 | 346209
19 | 76:56.10 | 3:03.14 | 346210 | 359948

Range status and errors

Selected range Filename D:My MusicBryan Adams - 2005 AnthologyCD2Bryan Adams - Anthology CD2.wav Peak level 100.0 %
Extraction speed 2.2 X
Range quality 100.0 %
Test CRC 9178592C
Copy CRC 9178592C
Copy OK

No errors occurred

AccurateRip summary

Track 1 accurately ripped (confidence 18) [26DB086D] (AR v2)
Track 2 accurately ripped (confidence 18) [FA19DAAA] (AR v2)
Track 3 accurately ripped (confidence 19) [682751D1] (AR v2)
Track 4 accurately ripped (confidence 18) 7F67430 (AR v2)
Track 5 accurately ripped (confidence 18) 3728CD1 (AR v2)
Track 6 accurately ripped (confidence 18) [C23E5B4C] (AR v2)
Track 7 accurately ripped (confidence 18) C224DB0 (AR v2)
Track 8 accurately ripped (confidence 19) [A6297697] (AR v2)
Track 9 accurately ripped (confidence 18) [A82CB98E] (AR v2)
Track 10 accurately ripped (confidence 19) [722EE708] (AR v2)
Track 11 accurately ripped (confidence 18) [75B27295] (AR v2)
Track 12 accurately ripped (confidence 19) [698CC2AA] (AR v2)
Track 13 accurately ripped (confidence 19) [0ED7D55B] (AR v2)
Track 14 accurately ripped (confidence 18) [DE24E445] (AR v2)
Track 15 accurately ripped (confidence 18) 07E343C (AR v2)
Track 16 accurately ripped (confidence 18) [068327D3] (AR v2)
Track 17 accurately ripped (confidence 18) [95EC2BE0] (AR v2)
Track 18 accurately ripped (confidence 17) [E921F257] (AR v2)
Track 19 accurately ripped (confidence 19) [3D7AB619] (AR v2)

All tracks accurately ripped

End of status report

==== Log checksum BFED43F7A14820A73AAAA09961E97ED504357EF2D2B895CE04C7519EC76EEE4D ====

[CUETools log; Date: 12/30/2014 5:20:56 PM; Version: 2.1.4]
[CTDB TOCID: yfEEADRq0GC..h_3yn.CUBl3jcw-] found.
Track | CTDB Status
1 | (32/32) Accurately ripped
2 | (32/32) Accurately ripped
3 | (32/32) Accurately ripped
4 | (32/32) Accurately ripped
5 | (32/32) Accurately ripped
6 | (32/32) Accurately ripped
7 | (32/32) Accurately ripped
8 | (32/32) Accurately ripped
9 | (32/32) Accurately ripped
10 | (32/32) Accurately ripped
11 | (32/32) Accurately ripped
12 | (32/32) Accurately ripped
13 | (32/32) Accurately ripped
14 | (32/32) Accurately ripped
15 | (31/32) Accurately ripped
16 | (32/32) Accurately ripped
17 | (32/32) Accurately ripped
18 | (32/32) Accurately ripped
19 | (31/32) Accurately ripped
[AccurateRip ID: 003a6aef-03238e21-1512bf13] found.
Track [ CRC | V2 ] Status
01 [5a23edb8|26db086d] (015+018/100) Accurately ripped
02 [456ebd13|fa19daaa] (015+018/100) Accurately ripped
03 [471de695|682751d1] (015+019/100) Accurately ripped
04 [7bdb246b|b7f67430] (014+018/096) Accurately ripped
05 [3793eef1|b3728cd1] (015+018/098) Accurately ripped
06 [840ac85e|c23e5b4c] (015+018/098) Accurately ripped
07 [0e5142c5|bc224db0] (014+018/095) Accurately ripped
08 [0753acd8|a6297697] (014+019/099) Accurately ripped
09 [4f7fd790|a82cb98e] (014+018/098) Accurately ripped
10 36e6542|722ee708 (014+019/096) Accurately ripped
11 b62e15a|75b27295 (015+018/099) Accurately ripped
12 [61c25909|698cc2aa] (015+019/099) Accurately ripped
13 [203e7132|0ed7d55b] (015+019/100) Accurately ripped
14 4562fc2|de24e445 (015+018/098) Accurately ripped
15 [f6cf9784|b07e343c] (014+018/097) Accurately ripped
16 [865fca95|068327d3] (014+018/094) Accurately ripped
17 [0c1c1cb3|95ec2be0] (014+018/096) Accurately ripped
18 fd50004|e921f257 (014+017/095) Accurately ripped
19 [5211dc46|3d7ab619] (015+019/094) Accurately ripped
Offsetted by -1328:
01 [df90418e] (002/100) Accurately ripped
02 [e1eb9cf9] (002/100) Accurately ripped
03 [2a4b94c6] (002/100) Accurately ripped
04 [1c57d731] (002/096) Accurately ripped
05 [ac1b5d3f] (002/098) Accurately ripped
06 [64e8fa2a] (002/098) Accurately ripped
07 [a73b5b2a] (002/095) Accurately ripped
08 [d0e1a80a] (002/099) Accurately ripped
09 [eb6efe4d] (002/098) Accurately ripped
10 [7442a7ce] (002/096) Accurately ripped
11 [3432f4bd] (002/099) Accurately ripped
12 [e93bc85e] (002/099) Accurately ripped
13 [46d43bb0] (002/100) Accurately ripped
14 [8ee29287] (002/098) Accurately ripped
15 [e8f3d43b] (002/097) Accurately ripped
16 [e60c62e7] (002/094) Accurately ripped
17 [aff3f727] (002/096) Accurately ripped
18 [ad0007d4] (002/095) Accurately ripped
19 [82169b05] (002/094) Accurately ripped
Offsetted by -664:
01 [52da0452] (034/100) Accurately ripped
02 [f37b9e9b] (034/100) Accurately ripped
03 [37f63de5] (033/100) Accurately ripped
04 [5b5a221d] (031/096) Accurately ripped
05 [54ba4524] (033/098) Accurately ripped
06 [deccf571] (032/098) Accurately ripped
07 ce436dc (031/095) Accurately ripped
08 74a9d46 (033/099) Accurately ripped
09 [894c0d20] (034/098) Accurately ripped
10 [003867a3] (031/096) Accurately ripped
11 [763c718a] (033/099) Accurately ripped
12 [a0205b43] (032/099) Accurately ripped
13 [cd5c121b] (034/100) Accurately ripped
14 [863e1e69] (033/098) Accurately ripped
15 [698e1c7f] (032/097) Accurately ripped
16 [ad405177] (031/094) Accurately ripped
17 [44a7102b] (032/096) Accurately ripped
18 [31c96823] (032/095) Accurately ripped
19 [50b99f3e] (029/094) Accurately ripped
Offsetted by -18:
01 [42d46354] (007/100) Accurately ripped
02 [399fa166] (007/100) Accurately ripped
03 [1d79c121] (007/100) Accurately ripped
04 [d7aa4d19] (007/096) Accurately ripped
05 [f404ed52] (007/098) Accurately ripped
06 [aa255f1d] (007/098) Accurately ripped
07 [d33a9759] (007/095) Accurately ripped
08 [d52154c2] (007/099) Accurately ripped
09 [f53deb00] (007/098) Accurately ripped
10 [8223fecf] (007/096) Accurately ripped
11 [05baa16c] (007/099) Accurately ripped
12 [1c8c3a75] (007/099) Accurately ripped
13 [3ab0af5a] (007/100) Accurately ripped
14 [0afffe85] (007/098) Accurately ripped
15 [58f3d0c8] (007/097) Accurately ripped
16 [1c91182e] (007/094) Accurately ripped
17 [d1130c44] (007/096) Accurately ripped
18 [64bfe78f] (007/095) Accurately ripped
19 [a3153374] (007/094) Accurately ripped

Track Peak [ CRC32 ] [W/O NULL] [ LOG ]
-- 100.0 [9178592C] [42470F8A] CRC32
01 100.0 [09728444] [5A758C58]
02 100.0 9FDA629 [D87D5616]
03 100.0 [55E39708] [3C3B5EA8]
04 100.0 [39ACE8B1] [ED9BABB8]
05 99.3 [A5863E81] [183EABED]
06 100.0 [A242F7B6] [7C4A58D6]
07 98.8 [862942DC] A231F67
08 100.0 [63F2D0C6] [4C957F4D]
09 98.3 [C4D0B039] [216AE18B]
10 100.0 [1669F70B] 566708D
11 98.0 [10761341] [96C29CE7]
12 100.0 [4F193E2D] [E13DA5B1]
13 100.0 [D18BBAF7] [823BFF64]
14 100.0 A689CA5 [FFCDC15E]
15 100.0 [3F98D25E] B5C54D2
16 100.0 [005E92DB] [070AE5B8]
17 99.4 [1FAC9263] [178B855D]
18 100.0 [FA2817FA] [1C4CD705]
19 63.3 [2D5046B2] [4674F379]

Released Date: October 18, 2005
Format: 2 x CD, Compilation
Length: 79:36 (CD1) + 79:59 (CD2)
Producer: Bryan Adams, Robert John "Mutt" Lange, Bob Clearmountain

http://i67.fastpic.ru/big/2015/0106/f4/2a3555450712062b4d689e8513ae3cf4.jpg

http://i67.fastpic.ru/big/2015/0106/d1/f424d5f60bd848a41d11f84190729cd1.jpg

http://i66.fastpic.ru/big/2015/0106/bd/499d7c03ce2dc47958df8c2bfb60b4bd.jpg


Link Download


Buy Premium To Support Me & Download with MaX SPeeD!


Uploaded.net

Rapidgator.net

Uploadable.ch

Nitroflare.com



uploadable_ch:
http://www.uploadable.ch/file/TTjgKyYQM2HZ/80jvh.Artwork.rar
http://www.uploadable.ch/file/BD5CYH5xQZ7c/80jvh.CD1..mp3.rar
http://www.uploadable.ch/file/Q7h86Ty4H9fz/80jvh.CD1.rar
http://www.uploadable.ch/file/XbzTzQwzR2gx/80jvh.CD2..mp3.rar
http://www.uploadable.ch/file/c6TaTXJmXryT/80jvh.CD2.rar

rapidgator_net:
http://rapidgator.net/file/14ce8b3b3cbd38b139fcd6009b48a08b/80jvh.Artwork.rar.html
http://rapidgator.net/file/50af0b254ef2ff840cb654acc12c8de4/80jvh.CD1..mp3.rar.html
http://rapidgator.net/file/f30d618271481ea3113a67bef9e83bcb/80jvh.CD1.rar.html
http://rapidgator.net/file/695dbf376356dd7124b0f523ab13cf71/80jvh.CD2..mp3.rar.html
http://rapidgator.net/file/5b81ebab8d13ab7af0970858768d9ef6/80jvh.CD2.rar.html

uploaded_net:
http://uploaded.net/file/yqda4xb9/80jvh.Artwork.rar
http://uploaded.net/file/vuk5yfib/80jvh.CD1..mp3.rar
http://uploaded.net/file/ezi8og04/80jvh.CD1.rar
http://uploaded.net/file/xezvqgok/80jvh.CD2..mp3.rar
http://uploaded.net/file/259n70fo/80jvh.CD2.rar
Direct Download

Tags: Japanese, Anthology
Nymphomaniac Online Putlocker | Charles H Gipson Financial Statements Analysis | By Sexibl Sexibl Blog Rk Rscuc | Mortal Kombat Pc Nude Mods Skin | Java Games Fuck | Blender Nature Academy | Allplan Cr Ack Rar | Opus Eponymous Full Album Ghost Torrent | Torrent Xna Xtreme The Complete Bundle | Windows Enterprise Product Key Rodoved Tags Muscle | Msp User Names And Passwords | Punishtube Account December | Intitle Index Of Mp Insanity The Asylum | Bx Hybrid Pro Tools Torrent Windows Pc | Windows Enterprise Product Key Rodoved Ebook Self Ligating Brackets In Ortho | How Much Do You Make Off Off Of Teespring | Before Midnight Subtitles Download | How To Run Autoturn In Autocad | Games Of Thrones S Kickass Torrent

Bryan Adams Anthology 2005 [Japanese Edition] Download via Hotfile Rapidshare Fileserve Megaupload & FileSonic, Bryan Adams Anthology 2005 [Japanese Edition] free torrent downloads included crack, serial, keygen.


Add comments

Your Name:
Your E-Mail:

Security Code:
Include security image CAPCHA.
update code
Insert Code: