Introduction to Rendering Tips and Tricks in CINEMA 4D

Download Now

http://i57.fastpic.ru/big/2013/1220/5d/cca4c4c87f7163bedbdb97a6be14c95d.jpg

Introduction to Rendering - Tips and Tricks in CINEMA 4D
English | MP4 | 1280x720 | AVC 866 Kbps 15.000 fps | AAC 128 Kbps 44.1 khz | 2h 15mn | 574 MB
Genre: Video Training

"In this course we will learn various rendering tips and tricks. Each video in this course is a self-contained lesson centering on tips and tricks that can help improve your rendering workflows in CINEMA 4D."

1. Introduction to Rendering Tips and Tricks in CINEMA 4D 01:03
2. Rendering ambient occlusion within CINEMA 4D 14:25
3. Including and excluding objects from CINEMA 4D lights 06:03
4. Rendering with Sub-Polygon Displacement in CINEMA 4D 11:28
5. Working with CINEMA 4D area lights 16:39
6. Using the Cel Renderer within CINEMA 4D 04:25
7. Using the CINEMA 4D Sketch Material 12:03
8. Rendering a basic logo animation in CINEMA 4D 09:55
9. Various rendering methods in CINEMA 4D 08:08
10. Creating Shadow Caster lights within CINEMA 4D 03:41
11. Volumetric lighting in CINEMA 4D 07:58
12. Creating caustic light patterns in CINEMA 4D 10:34
13. Adding lens flares to CINEMA 4D lights 12:42
14. Using the CINEMA 4D Lighting Tool to place lights accurately 05:38
15. Using subsurface scattering in CINEMA 4D 10:12

General
Complete name : 01. Introduction to Rendering Tips and Tricks in CINEMA 4D.mp4
Format : MPEG-4
Format profile : Base Media
Codec ID : isom
File size : 7.18 MiB
Duration : 1mn 0s
Overall bit rate : 996 Kbps
Writing application : Lavf54.63.100

Video
ID : 1
Format : AVC
Format/Info : Advanced Video Codec
Format settings, CABAC : Yes
Format settings, ReFrames : 4 frames
Codec ID : avc1
Codec ID/Info : Advanced Video Coding
Duration : 1mn 0s
Bit rate : 866 Kbps
Nominal bit rate : 1 000 Kbps
Width : 1 280 pixels
Height : 720 pixels
Display aspect ratio : 16:9
Frame rate mode : Constant
Frame rate : 15.000 fps
Color space : YUV
Chroma subsampling : 4:2:0
Bit depth : 8 bits
Scan type : Progressive
Bits/(Pixel*Frame) : 0.063
Stream size : 6.23 MiB (87%)
Writing library : x264 core 129 r2245 bc13772
Encoding settings : cabac=1 / ref=3 / deblock=1:0:0 / analyse=0x3:0x113 / me=hex / subme=7 / psy=1 / psy_rd=1.00:0.00 / mixed_ref=1 / me_range=16 / chroma_me=1 / trellis=1 / 8x8dct=1 / cqm=0 / deadzone=21,11 / fast_pskip=1 / chroma_qp_offset=-2 / threads=12 / lookahead_threads=2 / sliced_threads=0 / nr=0 / decimate=1 / interlaced=0 / bluray_compat=0 / constrained_intra=0 / bframes=3 / b_pyramid=2 / b_adapt=1 / b_bias=0 / direct=1 / weightb=1 / open_gop=0 / weightp=2 / keyint=250 / keyint_min=15 / scenecut=40 / intra_refresh=0 / rc_lookahead=40 / rc=abr / mbtree=1 / bitrate=1000 / ratetol=1.0 / qcomp=0.60 / qpmin=0 / qpmax=69 / qpstep=4 / ip_ratio=1.40 / aq=1:1.00

Audio
ID : 2
Format : AAC
Format/Info : Advanced Audio Codec
Format profile : LC
Codec ID : 40
Duration : 1mn 0s
Duration_LastFrame : -4ms
Bit rate mode : Constant
Bit rate : 128 Kbps
Channel(s) : 2 channels
Channel positions : Front: L R
Sampling rate : 44.1 KHz
Compression mode : Lossy
Delay relative to video : -2s 48ms
Stream size : 945 KiB (13%)
Screenshots
http://i60.fastpic.ru/big/2013/1220/2c/7eb4bba1efbd6950324bcbc7f472ac2c.jpg
http://i57.fastpic.ru/big/2013/1220/ef/4de9fb6681a55dc9acf072c70a4b69ef.jpg
http://i58.fastpic.ru/big/2013/1220/d9/ed8ac74d21ad99a2709a129afe70f6d9.jpg

Link Download


Buy Premium Account To Support Me & Get Maximum Speed & Save Time!!

Uploaded.net
http://uploaded.net/file/3gmt4jku/re534.Introduction.to.Rendering..Tips.and.Tricks.in.CINEMA.4D.part1.rar
http://uploaded.net/file/quo2jw3h/re534.Introduction.to.Rendering..Tips.and.Tricks.in.CINEMA.4D.part2.rar

Rapidgator.net
http://rapidgator.net/file/f6442d436d4c496b7dd32f69dad3cbcc/re534.Introduction.to.Rendering..Tips.and.Tricks.in.CINEMA.4D.part1.rar.html
http://rapidgator.net/file/808717564f11564f15300b314bb118f5/re534.Introduction.to.Rendering..Tips.and.Tricks.in.CINEMA.4D.part2.rar.html

Secureupload.eu
http://www.secureupload.eu/vvghewiaiscd/re534.Introduction.to.Rendering..Tips.and.Tricks.in.CINEMA.4D.part1.rar
http://www.secureupload.eu/4luij2j68cu1/re534.Introduction.to.Rendering..Tips.and.Tricks.in.CINEMA.4D.part2.rar
Direct Download

Tags: CINEMA, Tricks, Rendering, Introduction
Hack Windows Enterprise N X | Public Notes Normal Version Login Rk Rsarozlnwrrlgmv Rk Rsmc Utrprrw | Tutorial O Instalar Jeppview | Introductory Chemistry For Today th Edition Answer Guide | Loginquo T Normal Version Public Notes Rsadanqoeykp Lbbuximy Rk Rs Xspzqfc | Windows Enterprise Product Key Rodoved Ebook The Oxford Handbook Of Creativi | Descargar Wil Embroidery Studio E | Build Public Notes Normal Version Login Lion Rsadacik Rsadafv | Quantumwise Atomistix Toolkit | Black Octopus Sound Seamlessr Mega Fl Studio Template Package | Download Complete Toefl Mastery Torrent | Bd Photo Lolita | Key And Username For Videoget V | Dr Lomp World | Download Cubase Trial | Chief Architect Premier X Trial Version Crack | Serial Male Actors Nude Images | Ozbekcha Erutik Hiko | How To Get x Resolution In Niresh

Introduction to Rendering Tips and Tricks in CINEMA 4D Download via Hotfile Rapidshare Fileserve Megaupload & FileSonic, Introduction to Rendering Tips and Tricks in CINEMA 4D free torrent downloads included crack, serial, keygen.


Add comments

Your Name:
Your E-Mail:

Security Code:
Include security image CAPCHA.
update code
Insert Code: