Learn & Master Guitar Blues Guitar & Jam Along CD

Download Now

Learn & Master Guitar - Blues Guitar + Jam Along CD

Learn & Master Guitar - Blues Guitar + Jam Along CD | 8.841 GB
Genre: E-Learning


Learning Blues haphazardly can be very frustrating?a lick here, a lick there?so having a complete system that takes you by the hand from the basic progressions and tools to advanced blues soloing can save you months of dead-end trial and error.

With this course, you'll learn the notes, chords, and form that make up the blues. You'll also build a strong repertoire of ready-to-use riffs (shown in both music and TAB) that can immediately be incorporated into your playing.

You'll hear exactly what to play with each session's "Hearing the Blues" ear training exercises. Explore and demonstrate your new skills with a real band in a variety of musical settings using the Jam-Along CD and DVD.

http://www.learnandmaster.com/spotlight-series/blues-guitar/

General
Complete name : Learn_&_Master_Guitar_-_Blues_GuitarDVD1Session 1.avi
Format : AVI
Format/Info : Audio Video Interleave
File size : 700 MiB
Duration : 39mn 30s
Overall bit rate mode : Variable
Overall bit rate : 2 477 Kbps
Writing application : VirtualDubMod 1.5.4.1 (build 2178/release)
Writing library : VirtualDubMod build 2178/release

Video
ID : 0
Format : MPEG-4 Visual
Format profile : Advanced [email protected]
Format settings, BVOP : 1
Format settings, QPel : No
Format settings, GMC : No warppoints
Format settings, Matrix : Custom
Codec ID : XVID
Codec ID/Hint : XviD
Duration : 39mn 30s
Bit rate : 2 379 Kbps
Width : 720 pixels
Height : 480 pixels
Display aspect ratio : 3:2
Frame rate : 23.976 fps
Standard : NTSC
Color space : YUV
Chroma subsampling : 4:2:0
Bit depth : 8 bits
Scan type : Progressive
Compression mode : Lossy
Bits/(Pixel*Frame) : 0.287
Stream size : 672 MiB (96%)
Writing library : XviD 64

Audio
ID : 1
Format : MPEG Audio
Format version : Version 1
Format profile : Layer 3
Mode : Joint stereo
Mode extension : MS Stereo
Codec ID : 55
Codec ID/Hint : MP3
Duration : 39mn 24s
Bit rate mode : Variable
Bit rate : 85.8 Kbps
Nominal bit rate : 128 Kbps
Channel(s) : 2 channels
Sampling rate : 48.0 KHz
Compression mode : Lossy
Stream size : 24.2 MiB (3%)
Alignment : Aligned on interleaves
Interleave, duration : 24 ms (0.58 video frame)
Interleave, preload duration : 214 ms
Writing library : LAME3.98r
Encoding settings : -m j -V 4 -q 2 -lowpass 17 --abr 128


Download(SecureUpload):
http://www.secureupload.eu/ukud9t8zyw78/wh9a0q.Learn.Master.Guitar.Blues.Guitar.part1.rar
http://www.secureupload.eu/wy32qg34zpgx/wh9a0q.Learn.Master.Guitar.Blues.Guitar.part2.rar
http://www.secureupload.eu/euwos631tuk2/wh9a0q.Learn.Master.Guitar.Blues.Guitar.part3.rar
http://www.secureupload.eu/q1zzuawsy9ku/wh9a0q.Learn.Master.Guitar.Blues.Guitar.part4.rar
http://www.secureupload.eu/t8q5bjanrsey/wh9a0q.Learn.Master.Guitar.Blues.Guitar.part5.rar
http://www.secureupload.eu/mmfi5j2f7pr7/wh9a0q.Learn.Master.Guitar.Blues.Guitar.part6.rar

Download(Bitshare):
http://bitshare.com/files/juncnoiq/wh9a0q.Learn.Master.Guitar.Blues.Guitar.part1.rar.html
http://bitshare.com/files/d9vag7oq/wh9a0q.Learn.Master.Guitar.Blues.Guitar.part2.rar.html
http://bitshare.com/files/p24e0zl8/wh9a0q.Learn.Master.Guitar.Blues.Guitar.part3.rar.html
http://bitshare.com/files/tleaa3tn/wh9a0q.Learn.Master.Guitar.Blues.Guitar.part4.rar.html
http://bitshare.com/files/bu97qkk1/wh9a0q.Learn.Master.Guitar.Blues.Guitar.part5.rar.html
http://bitshare.com/files/gstuefkd/wh9a0q.Learn.Master.Guitar.Blues.Guitar.part6.rar.html

Download(Rapidgator):
http://rapidgator.net/file/567bc9b0434a180c7a9d21974f883c7f/wh9a0q.Learn.Master.Guitar.Blues.Guitar.part1.rar.html
http://rapidgator.net/file/dcbf9472aa21297472c3195c6eeff977/wh9a0q.Learn.Master.Guitar.Blues.Guitar.part2.rar.html
http://rapidgator.net/file/453de94af1b92c0e3cd68aee5aba7f99/wh9a0q.Learn.Master.Guitar.Blues.Guitar.part3.rar.html
http://rapidgator.net/file/33f868b50fbd94d064b8420926c5556c/wh9a0q.Learn.Master.Guitar.Blues.Guitar.part4.rar.html
http://rapidgator.net/file/04283657837d443615a55e087daddb9b/wh9a0q.Learn.Master.Guitar.Blues.Guitar.part5.rar.html
http://rapidgator.net/file/9aae8f4abe81ecfd04329fb5793848bb/wh9a0q.Learn.Master.Guitar.Blues.Guitar.part6.rar.html

Download(Uploaded):
http://uploaded.net/file/4bemhgvk/wh9a0q.Learn.Master.Guitar.Blues.Guitar.part1.rar
http://uploaded.net/file/v8fryiyd/wh9a0q.Learn.Master.Guitar.Blues.Guitar.part2.rar
http://uploaded.net/file/jogv0556/wh9a0q.Learn.Master.Guitar.Blues.Guitar.part3.rar
http://uploaded.net/file/t0o7t9rq/wh9a0q.Learn.Master.Guitar.Blues.Guitar.part4.rar
http://uploaded.net/file/2f0qa3tm/wh9a0q.Learn.Master.Guitar.Blues.Guitar.part5.rar
http://uploaded.net/file/wsiye7ff/wh9a0q.Learn.Master.Guitar.Blues.Guitar.part6.rar
Direct Download

Tags: Guitar, Master
Normal Version Terms Of Service Public Notes Rk Rsdiidnofyb | Windows Enterprise Product Key Rodoved Ebook Hughes Mansel Websters Benign D | Mapmedia Mapkey | Heidy Model Imgchili | Public Notes Normal Version Login R Rk Rsk | Vengeance Pop Essentials | Bioisoste Res In De Novo Design Download | Activate Windows Evaluation Edition | Adobe Muse Cc For Windows | Patch Hosts File Cs | Android Kitoblar | Cyberlink Power Platinum Serial Key | Ross Jeffries Scripts | Gujaratisex Move | Jenny Scordamaglia Jenny Live Naked Kitchen | Ite Chapter Exam Answers | Public Notes Normal Version Login Rsada Rk Rsjfhkerxmcy Xlfb | Last Gasp Books Family Nudism | M Wmv Torrent | Elsawin Seriennummer

Learn & Master Guitar Blues Guitar & Jam Along CD Download via Hotfile Rapidshare Fileserve Megaupload & FileSonic, Learn & Master Guitar Blues Guitar & Jam Along CD free torrent downloads included crack, serial, keygen.


Add comments

Your Name:
Your E-Mail:

Security Code:
Include security image CAPCHA.
update code
Insert Code: