Digital Tutors Designing Custom Sites Using Child Themes in WordPress and CSS 2014

Download Now

http://i68.fastpic.ru/big/2014/1114/5e/89aa17585ef9f4d69ebab9923a64595e.jpg

Digital Tutors - Designing Custom Sites Using Child Themes in WordPress and CSS (2014)
MP4 | AVC 822kbps | English | 1280x720 | 15fps | 2h 02mins | AAC stereo 96kbps | 913 MB
Genre: Video Training

In this WordPress tutorial, we'll create a child theme for the WordPress website platform. We'll take an existing theme as a starting point and use Firefox Web Developer tools and its live preview to dissect and stylize our own version to create a custom site design.From this WordPress training you'll learn to interpret CSS code so that you can develop your own child themes.

Format : MPEG-4
Format profile : Base Media
Codec ID : isom
File size : 60.7 MiB
Duration : 8mn 52s
Overall bit rate : 955 Kbps
Writing application : Lavf54.29.104
Video #1
ID : 1
Format : AVC
Format/Info : Advanced Video Codec
Format profile : [email protected]
Format settings, CABAC : Yes
Format settings, ReFrames : 4 frames
Codec ID : avc1
Codec ID/Info : Advanced Video Coding
Duration : 8mn 52s
Bit rate : 822 Kbps
Width : 1 280 pixels
Height : 720 pixels
Display aspect ratio : 16:9
Frame rate mode : Constant
Frame rate : 15.000 fps
Color space : YUV
Chroma subsampling : 4:2:0
Bit depth : 8 bits
Scan type : Progressive
Bits/(Pixel*Frame) : 0.059
Stream size : 54.3 MiB (90%)
Writing library : x264 core 129
Encoding settings : cabac=1 / ref=3 / deblock=1:0:0 / analyse=0x3:0x113 / me=hex / subme=7 / psy=1 / psy_rd=1.00:0.00 / mixed_ref=1 / me_range=16 / chroma_me=1 / trellis=1 / 8x8dct=1 / cqm=0 / deadzone=21,11 / fast_pskip=1 / chroma_qp_offset=-2 / threads=18 / lookahead_threads=3 / sliced_threads=0 / nr=0 / decimate=1 / interlaced=0 / bluray_compat=0 / constrained_intra=0 / bframes=3 / b_pyramid=2 / b_adapt=1 / b_bias=0 / direct=1 / weightb=1 / open_gop=0 / weightp=2 / keyint=250 / keyint_min=15 / scenecut=40 / intra_refresh=0 / rc_lookahead=40 / rc=abr / mbtree=1 / bitrate=822 / ratetol=1.0 / qcomp=0.60 / qpmin=0 / qpmax=69 / qpstep=4 / ip_ratio=1.40 / aq=1:1.00
Audio #2
ID : 2
Format : AAC
Format/Info : Advanced Audio Codec
Format profile : LC
Codec ID : 40
Duration : 8mn 52s
Duration_LastFrame : 4ms
Bit rate mode : Constant
Bit rate : 96.0 Kbps
Channel(s) : 2 channels
Channel positions : Front: L R
Sampling rate : 44.1 KHz
Compression mode : Lossy
Stream size : 6.10 MiB (10%)

http://i63.fastpic.ru/big/2014/1114/ae/63a3ae6260421ec39a61849319d4dfae.jpg

http://i67.fastpic.ru/big/2014/1114/20/ff535185caf7ff3c81cfbcb79b966c20.jpg

http://i63.fastpic.ru/big/2014/1114/41/2ff1498c3d140a4f130eb8c926c1f141.jpg

No mirrors please


Download Below:
----------------------------------------------
Recommend Purchase Premium Account

----------------------------------------------

RapidGator:
http://rapidgator.net/file/bcdf6d9b64b4c8b919e8ae84f5522dbf/815bb.Digital.Tutors..Designing.Custom.Sites.Using.Child.Themes.in.WordPress.and.CSS.2014.part1.rar.html
http://rapidgator.net/file/abcc27b8722b29ee294d5bc9d3978153/815bb.Digital.Tutors..Designing.Custom.Sites.Using.Child.Themes.in.WordPress.and.CSS.2014.part2.rar.html
http://rapidgator.net/file/45018a6609f56cadbbd29c10f90a0748/815bb.Digital.Tutors..Designing.Custom.Sites.Using.Child.Themes.in.WordPress.and.CSS.2014.part3.rar.html
http://rapidgator.net/file/245c8dab1c036ea02496fc98280f046f/815bb.Digital.Tutors..Designing.Custom.Sites.Using.Child.Themes.in.WordPress.and.CSS.2014.part4.rar.html
http://rapidgator.net/file/fb42b66ff7e2bd983b620f684c0b935f/815bb.Digital.Tutors..Designing.Custom.Sites.Using.Child.Themes.in.WordPress.and.CSS.2014.part5.rar.html

Uploaded:
http://uploaded.net/file/zo0h36xv/815bb.Digital.Tutors..Designing.Custom.Sites.Using.Child.Themes.in.WordPress.and.CSS.2014.part1.rar
http://uploaded.net/file/25bzlytb/815bb.Digital.Tutors..Designing.Custom.Sites.Using.Child.Themes.in.WordPress.and.CSS.2014.part2.rar
http://uploaded.net/file/bcva79o7/815bb.Digital.Tutors..Designing.Custom.Sites.Using.Child.Themes.in.WordPress.and.CSS.2014.part3.rar
http://uploaded.net/file/snwfo7d3/815bb.Digital.Tutors..Designing.Custom.Sites.Using.Child.Themes.in.WordPress.and.CSS.2014.part4.rar
http://uploaded.net/file/1ht1fh0y/815bb.Digital.Tutors..Designing.Custom.Sites.Using.Child.Themes.in.WordPress.and.CSS.2014.part5.rar

UploadAble:
http://www.uploadable.ch/file/qqNvKHDMf8wS/815bb.Digital.Tutors..Designing.Custom.Sites.Using.Child.Themes.in.WordPress.and.CSS.2014.part1.rar
http://www.uploadable.ch/file/SGMXHZAzzYF2/815bb.Digital.Tutors..Designing.Custom.Sites.Using.Child.Themes.in.WordPress.and.CSS.2014.part2.rar
http://www.uploadable.ch/file/CEJztyYqTvuG/815bb.Digital.Tutors..Designing.Custom.Sites.Using.Child.Themes.in.WordPress.and.CSS.2014.part3.rar
http://www.uploadable.ch/file/MB5q2tqyKHy7/815bb.Digital.Tutors..Designing.Custom.Sites.Using.Child.Themes.in.WordPress.and.CSS.2014.part4.rar
http://www.uploadable.ch/file/YKq84sp5wWha/815bb.Digital.Tutors..Designing.Custom.Sites.Using.Child.Themes.in.WordPress.and.CSS.2014.part5.rar

TurboBit:
http://turbobit.net/bhagiwgfftt0/815bb.Digital.Tutors..Designing.Custom.Sites.Using.Child.Themes.in.WordPress.and.CSS.2014.part1.rar.html
http://turbobit.net/swrcf5oo2d89/815bb.Digital.Tutors..Designing.Custom.Sites.Using.Child.Themes.in.WordPress.and.CSS.2014.part2.rar.html
http://turbobit.net/jm64p624axtm/815bb.Digital.Tutors..Designing.Custom.Sites.Using.Child.Themes.in.WordPress.and.CSS.2014.part3.rar.html
http://turbobit.net/ks66zlhg59gn/815bb.Digital.Tutors..Designing.Custom.Sites.Using.Child.Themes.in.WordPress.and.CSS.2014.part4.rar.html
http://turbobit.net/eoh9w5hg81lu/815bb.Digital.Tutors..Designing.Custom.Sites.Using.Child.Themes.in.WordPress.and.CSS.2014.part5.rar.html
Direct Download

Tags: WordPress, Themes, Designing, Tutors, Custom
Gwen Multi Version Tekuho | Phonerotca Anml | Nymphet Torrent | Download Free Sex Comics In Hindi Zip | Igo Navteq North America | Allheroinsexpho Tos | Index Of Game Of Thrones Avi | Ramya Pussy Photos | Otrrent File Ebook Magic Tree House Sunse T Of Sabertooth | Liv And Mattie Rule | Download Visual Studio Team Foundation Server X X Dvd Free Torrent | Sexy Dance Katy | Black Sabbath Cd Depositfiles | d Max Product Key Rk Rs | Nudism Photo | Extreme Sex Videofreedownlo Ad | Quicken Off Screen | Elsa Anna Humps | Nudist Parents Who Have Sex In Front Children | Playboy Tv Swing Actress

Digital Tutors Designing Custom Sites Using Child Themes in WordPress and CSS 2014 Download via Hotfile Rapidshare Fileserve Megaupload & FileSonic, Digital Tutors Designing Custom Sites Using Child Themes in WordPress and CSS 2014 free torrent downloads included crack, serial, keygen.


Add comments

Your Name:
Your E-Mail:

Security Code:
Include security image CAPCHA.
update code
Insert Code: