BBC The Hidden World of Britain's Immigrants 2014

Download Now

BBC - The Hidden World of Britain's Immigrants (2014)

BBC - The Hidden World of Britain's Immigrants (2014)

HDTV | 1280x720 | MP4/x264 @ 2500 Kbps | 59mn | Audio: English AAC 160 kbps, 2 channels | Subs: None | 1.10 GB

Genre: Documentary

There are believed to be over 600,000 illegal immigrants in the UK today, the subject of heated political debate but frequently hidden from public view. Foreign correspondent Fergal Keane finds out what life is really like for a group of illegal immigrants struggling to survive on Britain's streets. He asks what drew them here, follows their battles to beat the system and shows how ineffective the authorities can be in dealing with them.



More info

Video

ID : 1

Format : AVC

Format/Info : Advanced Video Codec

Format profile : [email protected]

Format settings, CABAC : Yes

Format settings, ReFrames : 4 frames

Codec ID : avc1

Codec ID/Info : Advanced Video Coding

Duration : 59mn 12s

Bit rate mode : Variable

Bit rate : 2 500 Kbps

Width : 1 280 pixels

Height : 720 pixels

Display aspect ratio : 16:9

Frame rate mode : Constant

Frame rate : 25.000 fps

Color space : YUV

Chroma subsampling : 4:2:0

Bit depth : 8 bits

Scan type : Progressive

Bits/(Pixel*Frame) : 0.109

Stream size : 1.03 GiB (94%)

Writing library : x264 core 130 r2273 b3065e6

Encoding settings : cabac=1 / ref=1 / deblock=1:0:0 / analyse=0x3:0x113 / me=hex / subme=2 / psy=1 / psy_rd=1.00:0.00 / mixed_ref=0 / me_range=16 / chroma_me=1 / trellis=0 / 8x8dct=1 / cqm=0 / deadzone=21,11 / fast_pskip=1 / chroma_qp_offset=0 / threads=3 / lookahead_threads=1 / sliced_threads=0 / nr=0 / decimate=1 / interlaced=0 / bluray_compat=0 / constrained_intra=0 / bframes=3 / b_pyramid=2 / b_adapt=1 / b_bias=0 / direct=1 / weightb=1 / open_gop=0 / weightp=1 / keyint=250 / keyint_min=25 / scenecut=40 / intra_refresh=0 / rc_lookahead=10 / rc=abr / mbtree=1 / bitrate=2500 / ratetol=1.0 / qcomp=0.60 / qpmin=0 / qpmax=69 / qpstep=4 / vbv_maxrate=62500 / vbv_bufsize=78125 / nal_hrd=none / ip_ratio=1.40 / aq=1:1.00

Encoded date : UTC 2014-01-09 16:33:40

Tagged date : UTC 2014-01-09 17:57:01

Color primaries : BT.709-5, BT.1361, IEC 61966-2-4, SMPTE RP177

Transfer characteristics : BT.709-5, BT.1361

Matrix coefficients : BT.709-5, BT.1361, IEC 61966-2-4 709, SMPTE RP177

Audio

ID : 2

Format : AAC

Format/Info : Advanced Audio Codec

Format version : Version 4

Format profile : LC

Codec ID : 40

Duration : 59mn 12s

Bit rate mode : Variable

Bit rate : 160 Kbps

Maximum bit rate : 201 Kbps

Channel(s) : 2 channels

Channel positions : Front: L R

Sampling rate : 48.0 KHz

Compression mode : Lossy

Stream size : 67.7 MiB (6%)

Language : English

Encoded date : UTC 2014-01-09 16:33:40

Tagged date : UTC 2014-01-09 17:57:01

BBC - The Hidden World of Britain's Immigrants (2014)

BBC - The Hidden World of Britain's Immigrants (2014)
Buy Premium Account To Download More Files With Fast Speed.

Direct Download

Tags: Immigrants, Britain, Hidden
Hotel Transylvaniam Porn | Diablo Iii V Client Server Emulator Revolt Team Mooege | Real Nn Magazines | Manuel Fotomagico | Jacqui Childs Naked News | Subtitles Borgias S p Publichd English Torrents | Daleide Dld Free Do Wnload gp Azum I Mizushima | Windows Enterprise Product Key Rodoved Ebook Challenging Math Puzzles | Geography Club Srt | Ghost Opus Eponymous Rapidshare | Lion Retail Tek Link Turbobit | Incest Comiks Loli | Children Nacked | Dodear Xn Movies Mp | Filipina Sex Diary May And Rebecca | Ativar Windows Single Language | Lynda Running A Design Business Starting Small Torrent | Diablo Server Emulator V Revolt Sendspace | Guide To Unix Using Linux Answers

BBC The Hidden World of Britain's Immigrants 2014 Download via Hotfile Rapidshare Fileserve Megaupload & FileSonic, BBC The Hidden World of Britain's Immigrants 2014 free torrent downloads included crack, serial, keygen.


Add comments

Your Name:
Your E-Mail:

Security Code:
Include security image CAPCHA.
update code
Insert Code: