CSI Miami S05E24 720p WEB DL x264-b33z

Download Now


http://i33.fastpic.ru/big/2014/0306/f0/1f1c448b916d8ccb57c8287cc71845f0.jpg
CSI Miami | Size: 1.25 GB
File: CSI.Miami.S05E24.720p.WEB.DL.x264-b33z.mp4
Size: 1346431226 bytes (1.25 GiB), duration: 00:44:18, avg.bitrate: 4052 kb/s
Audio: aac, 48000 Hz, stereo (eng)
Video: h264, yuv420p, 1280x720, 16000.00 fps(r) (und)



CSI Miami S05E24 720p WEB DL x264-b33z

General
Complete name : CSI.Miami.S05E24.720p.WEB.DL.x264-b33z.mp4
Format : MPEG-4
Format profile : Base Media
Codec ID : isom
File size : 1.25 GiB
Duration : 44mn 18s
Overall bit rate : 4 052 Kbps
Writing application : Lavf55.30.100
Video
ID : 1
Format : AVC
Format/Info : Advanced Video Codec
Format profile : [email protected]
Format settings, CABAC : No
Format settings, ReFrames : 2 frames
Codec ID : avc1
Codec ID/Info : Advanced Video Coding
Duration : 44mn 18s
Bit rate : 3 918 Kbps
Width : 1 280 pixels
Height : 720 pixels
Display aspect ratio : 16:9
Frame rate : 23.976 fps
Color space : YUV
Chroma subsampling : 4:2:0
Bit depth : 8 bits
Scan type : Progressive
Bits/(Pixel*Frame) : 0.177
Stream size : 1.21 GiB (97%)
Color primaries : BT.709
Transfer characteristics : BT.709
Matrix coefficients : BT.709
Audio
ID : 2
Format : AAC
Format/Info : Advanced Audio Codec
Format profile : LC
Codec ID : 40
Duration : 44mn 18s
Bit rate mode : Constant
Bit rate : 128 Kbps
Channel(s) : 2 channels
Channel positions : Front: L R
Sampling rate : 48.0 KHz
Compression mode : Lossy
Stream size : 40.5 MiB (3%)
Language : English
Encoded by : b33z (what!)

CSI Miami
CSI's gritty approach to crime known as forensic science makes its way from Las Vegas to the streets of Florida in CSI: Miami. A whole new team of crime scene investigators is on hand to probe the seamy underside of Miami.
S05
E24
http://www.tv.com/shows/csi-miami

CSI: Crime Scene Investigation took television by storm in 2000 with its innovative and cutting-edge updating of a standard series concept - in this case, the cop show. Suddenly, instead of simply whodunit, solving crimes was a matter of howdunit, and with what size shoe, and whether anyone left behind traces of evidence that the blue ALS light could pick up. Now that gritty approach to crime known as forensic science makes its way from Las Vegas to the streets of Florida in CSI: Miami. A whole new team of crime scene investigators is on hand to probe the seamy underside of what some refer to as Cuba North and others call Georgia South. Consider it a tropical blend of people, culture, nightlife and, of course, the occasional killing or two. Just as you do in Vegas, come for the crime, stick around for the clues. And there's always a clue. The Team Horatio Caine is the lead criminologist, sort of the Grissom of the spin-off. But he's got a dangerous edge and a "blind allegiance to justice." Tim Speedle was a young, well-educated criminalist who did his job in honor of his high school friend, who died two years after he was paralyzed in a snowmobile accident. He died on duty when he was shot in a jewelry store while investigating a murder. Eric Delko is a funny and lovable character, now working as a CSI, specializing in underwater recovery. Alexx Woods is a young coroner. Alexx has the education that has earned her the nickname "knowologist," and she often challenges the other CSIs. She is known to talk to the victims. Calleigh Duquesne is the team's ballistics expert, sometimes known as the "bullet girl." Ryan Wolfe is the newest member of the team. He is young and often thinks outside the box to help solve cases.moreless

SCREENSHOT
http://i57.fastpic.ru/big/2014/0306/ea/351815a09c027c2e2b887f64eec89aea.jpg

CSI Miami S05E24 720p WEB DL x264-b33z

Download:
Buy Premium To Support Me & Get Resumable Support & Max Speed



Links are Interchangeable - No Password
Direct Download

CSI Miami S05E24 720p WEB DL x264-b33z Download via Hotfile Rapidshare Fileserve Megaupload & FileSonic, CSI Miami S05E24 720p WEB DL x264-b33z free torrent downloads included crack, serial, keygen.


Add comments

Your Name:
Your E-Mail:

Security Code:
Include security image CAPCHA.
update code
Insert Code: